<?xml version="1.0" standalone="no"?>
<!DOCTYPE svg PUBLIC "-//W3C//DTD SVG 1.1//EN" "http://www.w3.org/Graphics/SVG/1.1/DTD/svg11.dtd" >
<svg xmlns="http://www.w3.org/2000/svg">
<metadata>Generated by IcoMoon</metadata>
<defs>
<font id="huge-icons" horiz-adv-x="1024">
<font-face units-per-em="1024" ascent="960" descent="-64" />
<missing-glyph horiz-adv-x="1024" />
<glyph unicode="&#x20;" horiz-adv-x="512" d="" />
<glyph unicode="&#xe900;" glyph-name="cellular-network-offline" d="M498.773 627.627c32.853 8.533 66.56-17.92 66.56-51.627 0-4.693-0.427-8.96-1.707-13.227-4.693-17.067 5.547-34.56 23.040-39.253 2.56-0.853 5.547-0.853 8.107-0.853 14.080 0 27.307 9.387 30.72 23.893 2.56 9.387 3.84 19.627 3.84 29.44 0 64.853-52.48 117.333-117.333 117.333-9.813 0-19.627-1.28-29.44-3.84-17.067-4.267-27.307-21.76-23.040-38.827 4.693-17.067 22.187-27.307 39.253-23.040zM107.947 897.28c-12.373 12.373-32.853 12.373-45.227 0s-12.373-32.853 0-45.227l58.453-58.453c-44.373-65.28-67.84-140.373-67.84-217.6 0-83.2 26.88-163.84 78.080-232.533 6.4-8.533 15.787-12.8 25.6-12.8 6.827 0 13.227 2.133 19.2 6.4 14.080 10.667 17.067 30.72 6.4 44.8-42.667 57.6-65.707 125.013-65.707 194.133 0 60.16 17.92 118.613 50.773 170.667l75.947-75.947c-12.8-30.293-19.627-62.293-19.627-94.72 0-52.48 17.493-103.253 50.773-147.2 6.4-8.107 15.787-12.8 25.6-12.8 6.827 0 13.653 2.133 19.2 6.4 14.080 10.667 16.64 30.72 5.973 44.8-24.32 32.853-37.547 70.4-37.547 108.8 0 14.933 2.56 29.867 6.4 44.373l185.6-185.6v-328.107c0-17.493 14.507-32 32-32s32 14.507 32 32v264.107l372.053-372.053c6.4-6.4 14.507-9.387 22.613-9.387s16.213 2.987 22.613 9.387c12.373 12.373 12.373 32.853 0 45.227l-853.333 853.333zM704.427 422.4c5.973-4.267 12.373-6.4 19.2-6.4 9.813 0 19.2 4.267 25.6 12.8 33.28 43.947 50.773 94.72 50.773 147.2s-17.493 103.253-50.773 147.2c-10.667 14.080-30.72 17.067-44.8 5.973-14.080-10.667-16.64-30.72-5.973-44.8 24.32-32.427 37.547-69.973 37.547-108.373s-13.227-75.947-37.973-108.8c-10.667-14.080-7.68-34.133 6.4-44.8zM847.787 337.067c5.547-4.267 12.373-6.4 19.2-6.4 9.813 0 19.627 4.267 25.6 12.8 51.2 68.693 78.080 149.333 78.080 232.533s-26.88 163.84-78.080 232.533c-10.667 14.080-30.72 17.067-44.8 6.4s-17.067-30.72-6.4-44.8c42.667-57.6 65.707-124.587 65.707-194.133s-22.613-136.533-65.707-194.133c-10.667-14.080-7.68-34.133 6.4-44.8z" />
<glyph unicode="&#xe901;" glyph-name="cellular-network" d="M512 693.333c-64.853 0-117.333-52.48-117.333-117.333 0-53.333 36.267-98.133 85.333-112.213v-357.12c0-17.493 14.507-32 32-32s32 14.507 32 32v357.12c49.067 14.080 85.333 58.88 85.333 112.213 0 64.853-52.48 117.333-117.333 117.333zM512 522.667c-29.44 0-53.333 23.893-53.333 53.333s23.893 53.333 53.333 53.333 53.333-23.893 53.333-53.333-23.893-53.333-53.333-53.333zM319.573 729.6c-14.080 10.667-34.133 8.107-44.8-5.973-33.28-44.373-50.773-95.147-50.773-147.627s17.493-103.253 50.773-147.2c6.4-8.107 15.787-12.8 25.6-12.8 6.827 0 13.653 2.133 19.2 6.4 14.080 10.667 16.64 30.72 5.973 44.8-24.32 32.853-37.547 70.4-37.547 108.8s13.227 75.947 37.973 108.8c10.667 14.080 7.68 34.133-6.4 44.8zM704.427 729.6c-14.080-10.667-16.64-30.72-5.973-44.8 24.32-32.853 37.547-70.4 37.547-108.8s-13.227-75.947-37.973-108.8c-10.667-14.080-8.107-34.133 5.973-44.8 5.973-4.267 12.373-6.4 19.2-6.4 9.813 0 19.2 4.267 25.6 12.8 33.28 43.947 50.773 94.72 50.773 147.2s-17.493 103.253-50.773 147.2c-10.24 14.080-30.293 17.067-44.373 6.4zM176.213 814.933c-14.080 10.667-34.133 7.68-44.8-6.4-51.2-68.693-78.080-149.333-78.080-232.533s26.88-163.84 78.080-232.533c6.4-8.533 15.787-12.8 25.6-12.8 6.827 0 13.227 2.133 19.2 6.4 14.080 10.667 17.067 30.72 6.4 44.8-42.667 57.6-65.707 125.013-65.707 194.133s22.613 136.533 65.707 194.133c10.667 14.080 7.68 34.133-6.4 44.8zM892.587 808.533c-10.667 14.080-30.72 17.067-44.8 6.4s-17.067-30.72-6.4-44.8c42.667-57.6 65.707-124.587 65.707-194.133s-22.613-136.533-65.707-194.133c-10.667-14.080-7.68-34.133 6.4-44.8 5.547-4.267 12.373-6.4 19.2-6.4 9.813 0 19.627 4.267 25.6 12.8 51.2 68.693 78.080 149.333 78.080 232.533s-26.88 163.84-78.080 232.533z" />
<glyph unicode="&#xe902;" glyph-name="gps-disconnected" d="M855.893 746.667l105.387 105.387c12.373 12.373 12.373 32.853 0 45.227s-32.853 12.373-45.227 0l-105.387-105.387-105.387 105.387c-12.373 12.373-32.853 12.373-45.227 0s-12.373-32.853 0-45.227l105.387-105.387-105.387-105.387c-12.373-12.373-12.373-32.853 0-45.227s32.853-12.373 45.227 0l105.387 105.387 105.387-105.387c6.4-6.4 14.507-9.387 22.613-9.387s16.213 2.987 22.613 9.387c12.373 12.373 12.373 32.853 0 45.227l-105.387 105.387zM724.053 227.84c-31.147 23.040-64 49.493-97.707 78.507 62.293 71.253 60.587 180.053-7.68 247.893-67.84 68.267-176.64 69.973-247.893 7.68-29.44 34.133-55.893 66.987-78.507 98.133-34.133 46.933-57.173 77.653-96.427 75.52-40.107-1.707-57.6-31.573-81.92-73.387-102.4-175.36-73.387-398.080 70.4-541.867 86.187-86.187 200.96-130.987 317.013-130.987 77.227 0 154.88 20.053 224.853 60.587 41.813 24.32 71.68 41.813 73.813 81.493s-29.013 62.293-75.947 96.427zM573.44 509.44c43.947-43.947 45.227-113.92 5.547-160.427-27.307 25.173-55.040 51.627-84.48 81.067s-55.893 57.6-81.067 84.48c46.080 40.107 116.053 38.827 160-5.12zM693.76 105.387c-150.187-87.467-340.907-62.72-464.213 60.587-122.88 122.88-147.627 313.6-60.16 464.213 11.52 19.627 24.32 41.813 29.44 42.24 7.253-2.133 25.6-27.307 41.813-49.493 52.907-72.533 121.173-150.187 208.64-237.653s165.12-155.733 237.653-208.64c22.187-16.213 47.36-34.56 49.493-41.387-0.853-5.547-23.040-18.347-42.667-29.867z" />
<glyph unicode="&#xe903;" glyph-name="gps-signal-01" d="M724.053 227.84c-31.147 23.040-64 49.493-97.707 78.507 62.293 71.253 60.587 180.053-7.68 247.893-67.84 68.267-176.64 69.973-247.893 7.68-29.44 34.133-55.893 66.987-78.507 98.133-34.133 46.933-57.173 77.653-96.427 75.52-40.107-1.707-57.6-31.573-81.92-73.387-102.4-175.36-73.387-398.080 70.4-541.867 86.187-86.187 200.96-130.987 317.013-130.987 77.227 0 154.88 20.053 224.853 60.587 41.813 24.32 71.68 41.813 73.813 81.493s-29.013 62.293-75.947 96.427zM573.44 509.44c43.947-43.947 45.227-113.92 5.547-160.427-27.307 25.173-55.040 51.627-84.48 81.067s-55.893 57.6-81.067 84.48c46.080 40.107 116.053 38.827 160-5.12zM693.76 105.387c-150.187-87.467-340.907-62.72-464.213 60.587-122.88 122.88-147.627 313.6-60.16 464.213 11.52 19.627 24.32 41.813 29.44 42.24 7.253-2.133 25.6-27.307 41.813-49.493 52.907-72.533 121.173-150.187 208.64-237.653s165.12-155.733 237.653-208.64c22.187-16.213 47.36-34.56 49.493-41.387-0.853-5.547-23.040-18.347-42.667-29.867zM759.040 695.467c-29.867 29.867-68.693 51.2-111.787 61.44-17.067 3.84-34.56-6.827-38.4-23.893s6.827-34.56 23.893-38.4c32-7.253 59.307-22.187 81.067-44.373 22.187-22.187 37.12-49.493 44.373-81.493 3.413-14.933 16.64-24.747 31.147-24.747 2.56 0 4.693 0.427 7.253 0.853 17.067 3.84 27.733 21.333 23.893 38.4-9.813 43.093-31.147 81.92-61.44 112.213zM874.667 810.667c-54.187 54.187-126.293 87.467-207.787 95.573-17.067 1.707-33.28-11.093-34.987-28.587s11.093-33.28 28.587-34.987c66.56-6.827 125.013-33.707 168.96-77.227 43.947-43.947 70.827-102.4 77.227-168.96 1.707-16.64 15.787-29.013 32-29.013 1.28 0 2.133 0 3.413 0 17.493 1.707 30.293 17.493 28.587 34.987-8.533 81.92-41.387 154.027-96 208.213z" />
<glyph unicode="&#xe904;" glyph-name="gps-signal-02" d="M682.667 576c10.24 0 20.48 3.84 28.587 11.093 17.493 15.787 18.773 42.667 2.987 60.16v0.427c-15.787 17.493-42.667 18.773-60.16 2.56-17.493-15.787-18.773-43.093-2.987-60.587 8.533-8.96 20.053-13.653 31.573-13.653zM819.2 755.627c-16.64 16.64-43.52 16.64-60.16 0s-16.64-43.947 0-60.587c8.533-8.533 19.2-12.373 30.293-12.373s21.76 4.267 30.293 12.373c16.64 16.64 16.64 43.52-0.427 60.587v0zM927.573 860.587v0c-16.213 17.493-43.093 18.773-60.587 2.987s-18.773-43.093-2.987-60.587c8.533-9.387 20.053-14.080 31.573-14.080 10.24 0 20.48 3.84 28.587 11.093 17.92 16.213 19.2 43.093 3.413 60.587zM724.053 227.84c-31.147 23.040-64 49.493-97.707 78.507 62.293 71.253 60.587 180.053-7.68 247.893-67.84 68.267-176.64 69.973-247.893 7.68-29.44 34.133-55.893 66.987-78.507 98.133-34.133 46.933-57.173 77.653-96.427 75.52-40.107-1.707-57.6-31.573-81.92-73.387-102.4-175.36-73.387-398.080 70.4-541.867 86.187-86.187 200.96-130.987 317.013-130.987 77.227 0 154.88 20.053 224.853 60.587 41.813 24.32 71.68 41.813 73.813 81.493s-29.013 62.293-75.947 96.427zM573.44 509.44c43.947-43.947 45.227-113.92 5.547-160.427-27.307 25.173-55.040 51.627-84.48 81.067s-55.893 57.6-81.067 84.48c46.080 40.107 116.053 38.827 160-5.12zM693.76 105.387c-150.187-87.467-340.907-62.72-464.213 60.587-122.88 122.88-147.627 313.6-60.16 464.213 11.52 19.627 24.32 41.813 29.44 42.24 7.253-2.133 25.6-27.307 41.813-49.493 52.907-72.533 121.173-150.187 208.64-237.653s165.12-155.733 237.653-208.64c22.187-16.213 47.36-34.56 49.493-41.387-0.853-5.547-23.040-18.347-42.667-29.867z" />
<glyph unicode="&#xe905;" glyph-name="headset-connected" d="M966.4 317.44c-7.253 32.853-25.6 60.587-58.88 110.933l-3.84 5.973c-4.693 7.68-11.093 15.787-18.347 23.467v37.973c0 203.093-167.253 367.787-373.333 367.787-205.653 0-373.333-165.12-373.333-367.787v-38.4c-8.96-9.387-16.213-20.053-22.187-29.44-33.28-50.347-51.627-78.080-58.88-110.933-5.547-26.027-5.547-53.76 0-79.787 8.107-37.973 29.867-69.12 48.64-96.427 3.84-5.973 8.107-11.52 11.52-17.067 12.373-18.773 32.427-49.067 69.12-49.067 2.133 0 4.693 0 7.253 0.427 14.080 1.28 25.173 7.68 43.093 17.92 13.227 7.253 21.76 12.373 29.44 20.907 20.907 22.613 20.907 49.92 20.907 69.973v187.307c0 20.053 0 47.36-20.907 69.973-7.68 8.533-16.213 13.227-29.44 20.907-14.080 8.107-23.893 13.227-34.56 15.787v17.92c0 167.68 138.667 304.213 309.333 304.213s309.333-136.533 309.333-303.787v-17.92c-10.667-2.56-20.907-8.107-35.84-16.64-15.36-8.533-37.973-21.76-46.507-53.333-2.987-10.667-2.987-20.48-2.987-37.12v-187.307c0-16.64 0-26.453 2.987-37.12 8.533-31.573 31.573-44.8 47.36-53.76 17.493-9.813 28.587-16.213 43.093-17.92 2.133-0.427 4.693-0.427 6.827-0.427 14.080 0 27.733 4.267 39.68 12.8 11.52 8.107 18.347 18.773 30.293 36.693 3.84 5.547 7.68 11.093 11.52 16.64 19.2 27.307 40.533 58.453 49.067 96.853 5.12 26.027 5.12 53.333-0.427 79.787zM220.16 397.653c3.413-3.84 3.84-11.52 3.84-26.453v-187.307c0-15.36-0.427-23.040-3.84-26.453-1.28-1.28-7.68-5.12-14.507-8.533-7.68-4.267-15.787-8.96-17.92-9.813-3.84 1.707-12.373 14.080-16.213 20.48-3.84 5.973-8.107 12.373-12.373 18.347-16.213 23.467-33.28 47.787-38.827 73.813-3.84 17.067-3.84 35.413 0 52.48 4.693 21.333 19.627 43.947 50.347 90.88 4.693 7.253 12.8 19.627 16.213 21.333h0.427c2.56-0.853 10.667-5.547 18.773-9.813 5.973-3.84 12.373-7.68 14.080-8.96zM903.68 250.88c-5.547-25.6-22.613-50.347-38.827-73.813-4.267-5.973-8.533-11.947-12.373-17.92-5.547-8.533-11.52-17.493-15.787-20.48-2.56 0.853-11.093 5.547-19.627 10.24-12.8 7.253-15.36 9.387-16.64 14.507-0.853 2.56-0.853 10.24-0.853 20.48v187.307c0 9.813 0 17.92 0.853 20.48 1.28 5.12 3.84 7.253 17.493 14.933 7.68 4.267 15.36 8.96 20.48 8.96 0 0 0.427 0 0.427 0 2.56-1.707 7.68-9.813 10.667-14.507l4.693-7.253c29.867-45.653 44.8-68.267 49.493-89.6 3.84-17.92 3.84-35.84 0-53.333zM598.613 240.64c-52.907 33.28-119.893 33.28-173.227 0.427-14.933-9.387-19.627-29.013-10.24-43.947s29.013-19.627 43.947-10.24c33.28 20.907 72.107 20.48 105.387 0 5.12-3.413 11.093-4.693 17.067-4.693 10.667 0 20.907 5.12 27.307 14.933 9.387 14.080 4.693 34.133-10.24 43.52zM363.52 339.627c-13.653-11.093-15.787-31.147-4.693-44.8s31.147-15.787 45.227-4.693c64.427 52.907 151.040 52.907 215.467 0 5.973-5.12 13.227-7.253 20.48-7.253 9.387 0 18.347 3.84 24.747 11.52 11.093 13.653 9.387 33.707-4.267 45.227-87.893 72.107-209.067 72.107-296.96 0zM512.427 149.333v0c-23.893 0-42.667-19.2-42.667-42.667s19.2-42.667 42.667-42.667 42.667 19.2 42.667 42.667-19.2 42.667-42.667 42.667z" />
<glyph unicode="&#xe906;" glyph-name="home-wifi" d="M469.333 138.667h-20.053c-115.627 0-173.653 0-206.933 29.44s-41.813 88.32-58.88 205.227l-11.093 75.093c-11.947 82.347-17.92 123.733-5.547 154.88 12.8 31.147 45.227 56.32 110.507 106.24l52.053 40.107c162.133 124.16 160 124.16 322.133 0l52.053-40.107c65.28-49.92 97.707-75.093 110.507-105.813 11.947-29.867 7.253-68.693-4.267-146.773-2.56-17.493 9.387-33.707 26.88-36.267 17.067-2.56 33.707 9.387 36.267 26.88 11.947 82.773 19.2 132.693 0.427 179.627-19.2 47.36-58.88 77.653-130.987 132.693l-52.053 40.107c-92.587 70.827-139.093 106.24-200.107 106.24s-107.52-35.413-200.107-106.24l-51.627-39.68c-72.107-55.040-111.787-85.76-130.987-132.693-18.773-46.933-11.52-97.28 1.28-188.16l11.093-75.093c19.2-132.693 29.013-199.253 80.213-244.48 51.627-45.227 117.333-45.227 249.173-45.227h20.053c17.493 0 32 14.507 32 32s-14.507 32-32 32zM834.987 176.64c-67.413 41.813-151.893 42.24-219.307 0.427-14.933-9.387-19.627-29.013-10.24-43.947s29.013-19.627 43.947-10.24c47.787 29.44 104.107 29.44 151.893 0 5.12-3.413 11.093-4.693 17.067-4.693 10.667 0 21.333 5.12 27.307 14.933 8.96 14.080 4.267 34.133-10.667 43.52zM916.053 281.173c-113.067 92.16-268.8 92.587-381.867 0.427-13.653-11.093-15.787-31.147-4.693-45.227 11.093-13.653 31.147-15.787 45.227-4.693 90.027 72.96 210.773 72.96 300.8-0.427 5.973-4.693 13.227-7.253 20.053-7.253 9.387 0 18.347 3.84 24.747 11.947 11.52 14.080 9.387 34.133-4.267 45.227zM725.76 64v0c-23.893 0-42.667-19.2-42.667-42.667s19.2-42.667 42.667-42.667 42.667 19.2 42.667 42.667-19.2 42.667-42.667 42.667z" />
<glyph unicode="&#xe907;" glyph-name="hotspot-offline" d="M373.76 732.587c44.373 16.213 90.88 24.747 138.24 24.747 217.6 0 394.667-177.067 394.667-394.667 0-47.787-8.533-93.867-24.747-138.24-6.4-16.64 2.133-34.987 18.773-40.96 3.84-1.28 7.68-2.133 11.093-2.133 12.8 0 25.173 8.107 29.867 20.907 19.2 51.2 29.013 105.387 29.013 160.427 0 253.013-205.653 458.667-458.667 458.667-55.040 0-109.227-9.813-160.427-29.013-16.64-5.973-25.173-24.32-18.773-40.96 5.973-16.64 24.747-25.173 40.96-18.773zM512 650.667c-17.493 0-32-14.507-32-32s14.507-32 32-32c123.307 0 224-100.267 224-224 0-17.493 14.507-32 32-32s32 14.507 32 32c0 158.72-129.28 288-288 288zM107.947 897.28c-12.373 12.373-32.853 12.373-45.227 0s-12.373-32.853 0-45.227l145.92-145.92c-98.56-87.040-155.307-210.347-155.307-343.467 0-100.267 31.573-195.413 91.733-275.2 6.4-8.533 15.787-12.8 25.6-12.8 6.827 0 13.227 2.133 19.2 6.4 14.080 10.667 17.067 30.72 6.4 44.8-51.627 68.693-78.933 150.613-78.933 236.8 0 116.053 49.92 222.72 136.96 297.813l74.667-74.667c-66.133-54.613-104.96-135.68-104.96-223.147 0-70.827 25.6-139.093 72.107-192 6.4-7.253 14.933-10.667 23.893-10.667 7.68 0 14.933 2.56 20.907 8.107 13.227 11.52 14.507 32 2.987 45.227-35.84 40.96-55.893 93.867-55.893 149.333 0 70.4 32.427 135.253 86.613 177.493l77.227-77.227c-34.133-20.48-57.173-57.6-57.173-100.267 0-64.853 52.48-117.333 117.333-117.333 42.667 0 79.787 23.040 100.267 57.173l71.68-71.68c-4.267-5.973-8.107-12.373-12.8-17.92-11.52-13.227-10.24-33.707 2.987-45.227 5.973-5.12 13.653-8.107 21.333-8.107 8.96 0 17.92 3.84 23.893 10.667 3.84 4.267 7.253 9.387 11.093 14.080l186.027-186.027c6.4-6.4 14.507-9.387 22.613-9.387s16.213 2.987 22.613 9.387c12.373 12.373 12.373 32.853 0 45.227l-853.76 853.76zM512 309.333c-29.44 0-53.333 23.893-53.333 53.333 0 25.6 18.347 46.080 42.24 51.2l62.293-62.293c-5.12-23.893-25.6-42.24-51.2-42.24z" />
<glyph unicode="&#xe908;" glyph-name="hotspot" d="M512 480c-64.853 0-117.333-52.48-117.333-117.333s52.48-117.333 117.333-117.333 117.333 52.48 117.333 117.333-52.48 117.333-117.333 117.333zM512 309.333c-29.44 0-53.333 23.893-53.333 53.333s23.893 53.333 53.333 53.333 53.333-23.893 53.333-53.333-23.893-53.333-53.333-53.333zM512 821.333c-253.013 0-458.667-205.653-458.667-458.667 0-100.267 31.573-195.413 91.733-275.2 10.667-14.080 30.72-17.067 44.8-6.4s17.067 30.72 6.4 44.8c-51.627 68.693-78.933 150.613-78.933 236.8 0 217.6 177.067 394.667 394.667 394.667s394.667-177.067 394.667-394.667c0-86.187-27.307-168.107-78.933-236.8-10.667-14.080-7.68-34.133 6.4-44.8 5.547-4.267 12.373-6.4 19.2-6.4 9.813 0 19.2 4.267 25.6 12.8 60.16 79.787 91.733 174.933 91.733 275.2 0 253.013-205.653 458.667-458.667 458.667zM512 650.667c-158.72 0-288-129.28-288-288 0-70.827 26.027-139.093 73.387-192 6.4-7.253 14.933-10.667 23.893-10.667 7.68 0 15.36 2.56 21.333 8.107 13.227 11.947 14.080 32 2.56 45.227-36.693 40.96-57.173 94.293-57.173 149.333 0 123.733 100.267 224 224 224 123.307 0 224-100.267 224-224 0-55.040-20.053-108.373-57.173-149.333-11.947-13.227-10.667-33.28 2.56-45.227s33.28-10.667 45.227 2.56c47.36 52.907 73.387 121.173 73.387 192 0 158.72-129.28 288-288 288z" />
<glyph unicode="&#xe909;" glyph-name="internet-antenna-01" d="M557.653 340.053c42.24 17.92 71.68 59.733 71.68 107.947 0 64.853-52.48 117.333-117.333 117.333s-117.333-52.48-117.333-117.333c0-48.64 29.44-90.027 71.68-107.947l-78.507-170.667c-30.72-66.133-49.067-106.24-22.187-145.92 25.173-34.133 68.267-34.133 146.347-34.133s121.173 0 148.48 36.693c24.747 36.693 6.4 76.8-24.32 142.933l-78.507 171.093zM512 501.333c29.44 0 53.333-23.893 53.333-53.333s-23.893-53.333-53.333-53.333-53.333 23.893-53.333 53.333 23.893 53.333 53.333 53.333zM607.147 61.44c-5.973-8.107-51.2-8.107-95.147-8.107s-89.173 0-95.573 8.533c-4.693 6.827 14.080 47.36 29.44 80.213l66.133 144.213 66.133-143.787c15.36-32.853 34.133-73.813 29.013-81.067zM512 906.667c-253.013 0-458.667-205.653-458.667-458.667 0-100.267 31.573-195.413 91.733-275.2 10.667-14.080 30.72-17.067 44.8-6.4s17.067 30.72 6.4 44.8c-51.627 68.693-78.933 150.613-78.933 236.8 0 217.6 177.067 394.667 394.667 394.667s394.667-177.067 394.667-394.667c0-86.187-27.307-168.107-78.933-236.8-10.667-14.080-7.68-34.133 6.4-44.8 5.547-4.267 12.373-6.4 19.2-6.4 9.813 0 19.2 4.267 25.6 12.8 60.16 79.787 91.733 174.933 91.733 275.2 0 253.013-205.653 458.667-458.667 458.667zM512 736c-158.72 0-288-129.28-288-288 0-70.827 26.027-139.093 73.387-192 6.4-7.253 14.933-10.667 23.893-10.667 7.68 0 15.36 2.56 21.333 8.107 13.227 11.947 14.080 32 2.56 45.227-36.693 40.96-57.173 94.293-57.173 149.333 0 123.733 100.267 224 224 224 123.307 0 224-100.267 224-224 0-55.040-20.053-108.373-57.173-149.333-11.947-13.227-10.667-33.28 2.56-45.227s33.28-10.667 45.227 2.56c47.36 52.907 73.387 121.173 73.387 192 0 158.72-129.28 288-288 288z" />
<glyph unicode="&#xe90a;" glyph-name="internet-antenna-02" d="M512 906.667c-253.013 0-458.667-205.653-458.667-458.667 0-100.267 31.573-195.413 91.733-275.2 10.667-14.080 30.72-17.067 44.8-6.4s17.067 30.72 6.4 44.8c-51.627 68.693-78.933 150.613-78.933 236.8 0 217.6 177.067 394.667 394.667 394.667s394.667-177.067 394.667-394.667c0-86.187-27.307-168.107-78.933-236.8-10.667-14.080-7.68-34.133 6.4-44.8 5.547-4.267 12.373-6.4 19.2-6.4 9.813 0 19.2 4.267 25.6 12.8 60.16 79.787 91.733 174.933 91.733 275.2 0 253.013-205.653 458.667-458.667 458.667zM512 736c-158.72 0-288-129.28-288-288 0-70.827 26.027-139.093 73.387-192 6.4-7.253 14.933-10.667 23.893-10.667 7.68 0 15.36 2.56 21.333 8.107 13.227 11.947 14.080 32 2.56 45.227-36.693 40.96-57.173 94.293-57.173 149.333 0 123.733 100.267 224 224 224 123.307 0 224-100.267 224-224 0-55.040-20.053-108.373-57.173-149.333-11.947-13.227-10.667-33.28 2.56-45.227s33.28-10.667 45.227 2.56c47.36 52.907 73.387 121.173 73.387 192 0 158.72-129.28 288-288 288zM657.92 146.773c-9.813 8.96-14.933 13.227-20.48 17.067-12.8 8.533-28.16 14.080-43.947 16.213-6.4 0.853-13.653 1.28-27.307 1.28h-21.76v154.453c49.067 14.080 85.333 58.88 85.333 112.213 0 64.853-52.48 117.333-117.333 117.333s-117.76-52.48-117.76-117.333c0-53.333 36.267-98.133 85.333-112.213v-154.453h-21.76c-13.653 0-20.907 0-27.307-1.28-15.787-2.133-30.72-7.68-43.947-16.213-5.547-3.413-10.667-8.107-20.48-17.067-31.573-28.587-46.080-41.387-52.48-58.88-13.227-35.84 4.267-75.093 40.533-91.733 16.213-7.253 36.267-7.253 80.213-7.253h154.88c43.947 0 64 0 80.213 7.253 36.267 16.64 53.76 55.893 40.533 91.307-6.4 17.92-20.907 31.147-52.48 59.307zM458.667 448c0 29.44 23.893 53.333 53.333 53.333s53.333-23.893 53.333-53.333-23.893-53.333-53.333-53.333-53.333 23.893-53.333 53.333zM643.84 55.040c-5.973-1.707-29.44-1.707-54.613-1.707h-154.88c-25.173 0-48.64 0-53.76 1.707-4.693 2.133-8.533 6.4-7.68 9.813 2.987 5.12 19.627 20.053 35.84 34.56 6.4 5.547 9.387 8.533 12.8 10.667 5.12 3.413 11.52 5.547 17.92 6.4 2.987 0.427 5.973 0.427 10.24 0.427 2.133 0 5.12 0 8.107 0h107.52c8.96 0 14.080 0 18.347-0.427 6.4-0.853 12.8-3.413 17.92-6.4 3.413-2.133 6.827-5.12 12.8-11.093 17.067-14.933 32.853-29.44 35.413-32.853 2.133-4.693-2.133-8.96-5.973-11.093z" />
<glyph unicode="&#xe90b;" glyph-name="internet-antenna-03" d="M512 906.667c-253.013 0-458.667-205.653-458.667-458.667 0-100.267 31.573-195.413 91.733-275.2 10.667-14.080 30.72-17.067 44.8-6.4s17.067 30.72 6.4 44.8c-51.627 68.693-78.933 150.613-78.933 236.8 0 217.6 177.067 394.667 394.667 394.667s394.667-177.067 394.667-394.667c0-86.187-27.307-168.107-78.933-236.8-10.667-14.080-7.68-34.133 6.4-44.8 5.547-4.267 12.373-6.4 19.2-6.4 9.813 0 19.2 4.267 25.6 12.8 60.16 79.787 91.733 174.933 91.733 275.2 0 253.013-205.653 458.667-458.667 458.667zM512 736c-158.72 0-288-129.28-288-288 0-70.827 26.027-139.093 73.387-192 6.4-7.253 14.933-10.667 23.893-10.667 7.68 0 15.36 2.56 21.333 8.107 13.227 11.947 14.080 32 2.56 45.227-36.693 40.96-57.173 94.293-57.173 149.333 0 123.733 100.267 224 224 224 123.307 0 224-100.267 224-224 0-55.040-20.053-108.373-57.173-149.333-11.947-13.227-10.667-33.28 2.56-45.227s33.28-10.667 45.227 2.56c47.36 52.907 73.387 121.173 73.387 192 0 158.72-129.28 288-288 288zM640 53.333h-96v394.667c0 17.493-14.507 32-32 32s-32-14.507-32-32v-394.667h-96c-17.493 0-32-14.507-32-32s14.507-32 32-32h256c17.493 0 32 14.507 32 32s-14.507 32-32 32z" />
<glyph unicode="&#xe90c;" glyph-name="internet-antenna-04" d="M704.427 772.267c-14.080-10.667-16.64-30.72-5.973-44.8 24.32-32.853 37.547-70.4 37.547-108.8s-13.227-75.947-37.973-108.8c-10.667-14.080-8.107-34.133 5.973-44.8 5.973-4.267 12.373-6.4 19.2-6.4 9.813 0 19.2 4.267 25.6 12.8 33.28 43.947 50.773 94.72 50.773 147.2s-17.493 103.253-50.773 147.2c-10.24 14.080-30.293 17.067-44.373 6.4zM300.373 458.667c6.827 0 13.653 2.133 19.2 6.4 14.080 10.667 16.64 30.72 5.973 44.8-24.32 32.853-37.547 70.4-37.547 108.8s13.227 75.947 37.973 108.8c10.667 14.080 8.107 34.133-5.973 44.8s-34.133 8.107-44.8-5.973c-33.707-44.373-51.2-95.147-51.2-147.627s17.493-103.253 50.773-147.2c6.4-8.533 15.787-12.8 25.6-12.8zM176.213 857.6c-14.080 10.667-34.133 7.68-44.8-6.4-51.2-68.693-78.080-149.333-78.080-232.533s26.88-163.84 78.080-232.533c6.4-8.533 15.787-12.8 25.6-12.8 6.827 0 13.227 2.133 19.2 6.4 14.080 10.667 17.067 30.72 6.4 44.8-42.667 57.6-65.28 124.587-65.28 194.133s22.613 136.533 65.707 194.133c10.24 14.080 7.253 34.133-6.827 44.8zM892.587 851.2c-10.667 14.080-30.72 17.067-44.8 6.4s-17.067-30.72-6.4-44.8c42.667-57.6 65.707-124.587 65.707-194.133s-22.613-136.533-65.707-194.133c-10.667-14.080-7.68-34.133 6.4-44.8 5.547-4.267 12.373-6.4 19.2-6.4 9.813 0 19.627 4.267 25.6 12.8 51.2 68.693 78.080 149.333 78.080 232.533s-26.88 163.84-78.080 232.533zM589.653 531.2c24.32 21.333 39.68 52.48 39.68 87.467 0 64.853-52.48 117.333-117.333 117.333s-117.333-52.48-117.333-117.333c0-34.987 15.787-65.707 39.68-87.467l-165.973-456.533c-5.973-16.64 2.56-34.987 19.2-40.96 3.413-1.28 7.253-1.707 11.093-1.707 13.227 0 25.173 8.107 30.293 20.907l54.187 149.76h257.707l54.187-149.76c4.693-12.8 17.067-20.907 30.293-20.907 3.413 0 7.253 0.427 11.093 1.707 16.64 5.973 25.173 24.32 19.2 40.96l-165.973 456.533zM512 672c29.44 0 53.333-23.893 53.333-53.333s-23.893-53.333-53.333-53.333-53.333 23.893-53.333 53.333 23.893 53.333 53.333 53.333zM406.613 266.667l86.187 236.8c6.4-1.28 12.8-2.133 19.627-2.133s13.227 0.853 19.627 2.133l86.187-236.8h-211.627z" />
<glyph unicode="&#xe90d;" glyph-name="internet" d="M512 906.667c-253.013 0-458.667-205.653-458.667-458.667s205.653-458.667 458.667-458.667 458.667 205.653 458.667 458.667-205.653 458.667-458.667 458.667zM904.96 480h-191.147c-3.84 130.987-32.427 262.4-82.773 344.32 149.76-47.787 261.12-182.187 273.92-344.32zM512 53.333c-62.293 0-131.413 153.173-137.813 362.667h276.053c-6.827-209.493-75.947-362.667-138.24-362.667zM374.187 480c6.4 209.493 75.52 362.667 137.813 362.667s131.413-153.173 137.813-362.667h-275.627zM392.533 824.32c-50.347-81.92-78.507-213.333-82.773-344.32h-190.72c12.8 161.707 124.16 296.533 273.493 344.32zM119.040 416h191.147c3.84-130.987 32.427-262.4 82.773-344.32-149.76 47.787-261.12 182.613-273.92 344.32zM631.467 71.68c50.347 81.92 78.933 213.333 82.773 344.32h191.147c-13.227-162.133-124.587-296.533-273.92-344.32z" />
<glyph unicode="&#xe90e;" glyph-name="no-internet" d="M334.507 800.427c16.64 8.533 34.133 15.36 52.053 21.333-12.373-18.773-23.040-40.107-32.427-63.573-6.4-16.213 1.707-34.987 18.347-41.387 16.213-6.4 34.987 1.707 41.387 18.347 14.507 36.693 32.427 64.427 50.347 82.773 18.773 18.347 34.987 24.747 47.787 24.747 11.947 0 26.453-5.973 43.093-23.467s33.28-44.8 47.787-81.493c29.013-72.533 47.787-174.933 47.787-289.707 0-17.493 14.507-32 32-32h222.293c-4.267-52.053-17.92-101.12-40.107-145.493-8.107-15.787-1.707-34.987 14.080-43.093s34.987-1.707 43.093 14.080c31.147 61.867 49.067 132.267 49.067 206.507 0 253.44-205.227 458.667-458.667 458.667-74.24 0-144.213-17.493-206.507-49.067-16.213-7.68-22.613-27.307-14.507-43.093s27.307-21.76 43.093-14.080zM904.96 480h-191.147c-2.987 108.373-21.76 206.933-51.627 281.6-9.387 23.040-20.053 43.947-31.573 62.72 150.187-47.36 261.547-181.76 274.347-344.32zM107.947 897.28c-12.373 12.373-32.853 12.373-45.227 0s-12.373-32.853 0-45.227l106.24-106.24c-73.387-81.92-114.347-186.027-115.2-296.533 0-0.427-0.427-0.853-0.427-1.28s0-0.427 0-0.853c0-0.853 0-1.707 0-2.987 0-250.88 205.653-455.253 458.667-455.253 111.787 0 217.6 40.107 301.227 112.213l102.827-102.827c6.4-6.4 14.507-9.387 22.613-9.387s16.213 2.987 22.613 9.387c12.373 12.373 12.373 32.853 0 45.227l-853.333 853.76zM512 53.333c-62.293 0-131.413 153.173-137.813 362.667h124.587l131.84-131.84c0-0.427-0.427-0.853-0.427-1.707-28.16-158.293-79.36-229.12-118.187-229.12zM374.613 480c0.427 19.2 1.707 38.4 2.987 57.173l57.173-57.173h-60.16zM319.573 595.2c-5.12-37.12-8.107-75.52-9.387-115.2h-191.147c7.253 81.92 40.533 158.293 95.147 220.587l105.387-105.387zM118.613 416h191.147c3.84-130.987 32.427-262.827 82.773-344.32-150.613 47.36-261.973 182.187-273.92 344.32zM626.347 69.973c23.893 39.68 43.093 93.44 57.6 160.427l83.627-83.627c-41.387-34.987-89.6-61.44-141.227-76.8z" />
<glyph unicode="&#xe90f;" glyph-name="router-01" d="M936.107 402.773c-34.56 34.56-81.92 34.56-168.107 34.56h-512c-86.187 0-133.973 0-168.107-34.56-34.56-34.133-34.56-81.92-34.56-168.107s0-133.973 34.56-168.107 81.92-34.56 168.107-34.56h512c86.187 0 133.973 0 168.107 34.56s34.56 81.92 34.56 168.107 0 133.973-34.56 168.107zM890.88 111.787c-14.933-14.933-48.64-15.787-122.88-15.787h-512c-74.667 0-107.947 0.427-122.88 15.787-15.36 14.933-15.787 48.213-15.787 122.88s0.427 107.947 15.787 122.88c14.933 14.933 48.64 15.787 122.88 15.787h512c74.667 0 107.947-0.427 122.88-15.787s15.787-48.64 15.787-122.88-0.427-107.947-15.787-122.88zM604.587 672c10.667 0 21.333 5.12 27.307 14.933 9.387 14.933 4.693 34.56-10.24 43.947-66.987 42.24-151.893 42.24-219.307 0.427-14.933-8.96-19.627-29.013-10.24-43.947s29.013-19.627 43.947-10.24c47.787 29.44 104.533 29.44 151.893 0 5.12-3.413 11.093-5.12 16.64-5.12zM361.387 786.773c90.027 73.387 210.773 72.96 300.8-0.427 5.973-4.693 13.227-7.253 20.053-7.253 9.387 0 18.347 3.84 24.747 11.947 11.093 13.653 8.96 33.707-4.693 45.227-113.067 92.16-268.8 92.587-381.867 0.427-12.8-11.52-14.933-31.573-3.84-45.227s31.147-15.787 44.8-4.693zM512 618.667c-23.467 0-42.667-19.2-42.667-42.667s19.2-42.667 42.667-42.667 42.667 19.2 42.667 42.667-18.773 42.667-42.667 42.667v0zM768.427 277.333v0c-23.893 0-42.667-19.2-42.667-42.667s19.2-42.667 42.667-42.667 42.667 19.2 42.667 42.667-19.2 42.667-42.667 42.667zM597.76 277.333v0c-23.893 0-42.667-19.2-42.667-42.667s19.2-42.667 42.667-42.667 42.667 19.2 42.667 42.667-19.2 42.667-42.667 42.667zM426.667 266.667h-170.667c-17.493 0-32-14.507-32-32s14.507-32 32-32h170.667c17.493 0 32 14.507 32 32s-14.507 32-32 32z" />
<glyph unicode="&#xe910;" glyph-name="router-02" d="M936.107 360.107c-34.56 34.56-81.92 34.56-168.107 34.56h-352v282.027c6.4 7.253 10.667 16.64 10.667 27.307 0 23.467-19.2 42.667-42.667 42.667v0c-23.893 0-42.667-18.773-42.667-42.667 0-10.667 4.267-20.053 10.667-27.307v-282.027h-96c-86.187 0-133.973 0-168.107-34.56-34.56-34.133-34.56-81.92-34.56-168.107s0-133.973 34.56-168.107 81.92-34.56 168.107-34.56h512c86.187 0 133.973 0 168.107 34.56s34.56 81.92 34.56 168.107 0 133.973-34.56 168.107zM890.88 69.12c-14.933-14.933-48.64-15.787-122.88-15.787h-512c-74.667 0-107.947 0.427-122.88 15.787-15.36 14.933-15.787 48.213-15.787 122.88s0.427 107.947 15.787 122.88c14.933 14.933 48.64 15.787 122.88 15.787h512c74.667 0 107.947-0.427 122.88-15.787s15.787-48.64 15.787-122.88-0.427-107.947-15.787-122.88zM256.427 234.667v0c-23.893 0-42.667-19.2-42.667-42.667s19.2-42.667 42.667-42.667 42.667 19.2 42.667 42.667-19.2 42.667-42.667 42.667zM597.333 234.667v0c-23.893 0-42.667-19.2-42.667-42.667s19.2-42.667 42.667-42.667 42.667 19.2 42.667 42.667-19.2 42.667-42.667 42.667zM426.667 234.667v0c-23.893 0-42.667-19.2-42.667-42.667s19.2-42.667 42.667-42.667 42.667 19.2 42.667 42.667-18.773 42.667-42.667 42.667zM255.573 578.987c5.973 0 11.52 1.707 16.64 4.693 14.933 9.387 19.627 29.013 10.24 43.947-14.080 24.32-21.76 49.493-21.76 75.947s7.68 52.053 22.613 75.947c9.387 15.36 4.693 34.987-10.24 44.373s-34.987 4.693-44.373-10.24c-20.907-33.707-32-71.68-32-110.080 0-37.973 11.093-75.947 32-109.227 5.973-9.813 16.213-15.36 26.88-15.36zM148.48 501.333c7.253 0 14.080 2.56 20.053 7.253 13.653 11.093 15.787 31.147 4.693 45.227-36.693 44.8-55.893 96.427-55.893 149.76s19.627 105.813 56.32 150.613c11.093 13.653 8.96 33.707-4.693 45.227-13.653 11.093-33.707 8.96-44.8-4.693-46.507-56.32-70.827-122.453-70.827-191.147 0-68.267 24.32-133.973 70.4-190.72 5.973-7.68 15.36-11.52 24.747-11.52z" />
<glyph unicode="&#xe911;" glyph-name="rss-connected-01" d="M543.573 789.333c0 17.493-14.507 32-32 32-209.067 0-313.6 0-385.28-60.587-57.6-49.067-69.973-117.76-72.96-226.56-0.427-17.493 13.653-32.427 31.147-32.853 0.427 0 0.427 0 0.853 0 17.493 0 31.573 13.653 32 31.147 2.56 105.387 14.933 149.333 50.347 179.2 53.76 45.653 150.613 45.653 343.893 45.653 17.493 0 32 14.507 32 32zM968.107 578.133c-1.28 17.493-16.213 31.147-34.133 29.867-17.493-1.28-31.147-16.213-29.867-34.133 2.56-40.107 2.56-87.467 2.56-147.2 0-171.947-2.133-243.2-51.2-285.013-44.373-37.547-115.627-44.373-258.987-45.227-0.427 0-11.947 0-42.24 0-17.493 0-32-14.507-32-32s14.507-32 32-32c30.72 0 42.667 0 43.093 0 139.093 0.853 235.093 5.547 299.52 60.587 73.813 62.72 73.813 159.147 73.813 334.080 0 58.453 0 108.8-2.56 151.040zM594.773 629.333c0.427 0 27.733-5.12 58.88-67.84 5.12-10.24 15.36-17.067 26.88-17.493 0.427 0 1.28 0 1.707 0 11.093 0 21.333 5.547 26.88 14.933 36.267 56.747 149.333 211.2 239.787 243.2 16.64 5.973 25.6 24.32 19.627 40.96s-24.32 25.173-40.96 19.627c-96-34.133-195.84-160-243.627-226.987-40.107 54.187-78.080 57.6-86.613 57.6-17.493 0-33.28-14.080-33.28-32s13.227-32 30.72-32zM127.573 149.333v0c-23.893 0-42.667-19.2-42.667-42.667s19.2-42.667 42.667-42.667 42.667 19.2 42.667 42.667-19.2 42.667-42.667 42.667zM85.333 299.093c-17.493 0-32-14.507-32-32s14.507-32 32-32c88.32 0 171.52-83.2 171.52-171.093 0-17.493 14.507-32 32-32s32 14.507 32 32c0 123.307-112.213 235.093-235.52 235.093zM87.467 437.333c-17.493 0-32-14.507-32-32s14.507-32 32-32c145.067 0 307.2-132.267 307.2-309.333 0-17.493 14.507-32 32-32s32 14.507 32 32c0 220.16-195.84 373.333-371.2 373.333z" />
<glyph unicode="&#xe912;" glyph-name="rss-connected-02" d="M640.427 608.853v0c0 0 0 0 0 0s0 0 0 0 0 0 0 0 0 0 0 0c-0.427 0-0.427 0 0 0-0.427 0-0.427 0 0 0 0 0 0.853-0.427 1.707-0.853 1.707-1.28 4.693-2.987 8.107-5.973 6.827-5.547 16.213-14.507 23.893-28.16l27.733 16.213c5.12-2.56 9.387-4.693 12.8-5.973l-12.8 5.973-27.733-16.213c5.973-10.24 17.067-16.213 29.013-15.787 11.52 0.853 22.187 7.68 27.307 18.347 0 0 0 0 0 0v0 0 0c0 0 0 0 0 0v0c0 0 0 0 0 0s0 0.427 0.427 0.427 0.853 1.28 1.28 2.56c1.28 2.133 2.987 5.547 5.12 9.813 4.693 8.533 11.093 19.627 19.2 32 17.067 25.6 37.12 49.493 55.040 58.88 15.36 8.533 21.333 27.733 12.8 43.52-8.533 15.36-27.733 21.333-43.52 12.8-33.28-17.92-60.587-53.333-78.080-80.213-2.56-3.84-4.267-6.827-6.4-10.24-2.133 1.707-4.267 3.84-5.973 5.547-5.973 4.693-11.093 8.107-14.933 10.667-2.133 1.28-3.413 2.133-4.693 2.987-0.853 0.427-1.28 0.427-1.707 0.853-0.427 0-0.427 0-0.427 0.427 0 0 0 0-0.427 0 0 0 0 0 0 0s0 0 0 0 0 0 0 0 0 0-9.387-19.2l9.387 19.2c-15.787 7.68-34.987 0.853-42.667-14.933-7.68-16.213-0.853-34.987 14.933-42.667zM730.453 576.427v0 0 0zM725.333 416c135.68 0 245.333 109.653 245.333 245.333s-109.653 245.333-245.333 245.333-245.333-109.653-245.333-245.333c0-135.68 109.653-245.333 245.333-245.333zM725.333 842.667c100.267 0 181.333-81.067 181.333-181.333s-81.067-181.333-181.333-181.333-181.333 81.067-181.333 181.333 81.067 181.333 181.333 181.333zM84.48 459.093c17.493-0.427 32.427 13.653 32.853 31.147 2.56 103.253 14.507 148.907 50.347 179.627 39.253 32.853 99.413 42.667 227.413 44.8 17.493 0.427 32 14.933 31.573 32.427-0.427 17.92-14.933 32-32.427 31.573-124.16-1.707-208.64-9.813-267.947-60.16-59.733-50.773-70.4-124.587-72.96-226.56-0.427-17.92 13.653-32.427 31.147-32.853zM938.667 416.427c-17.493 0-32-14.507-32-32 0-86.613 0-147.627-7.253-194.133-7.253-44.8-20.48-71.253-43.947-91.307-20.48-17.493-47.787-29.013-89.173-35.84-42.24-6.827-96.427-8.96-169.387-9.387v-32.427c0 0 0 0 0 0l-0.427 32h-0.427v-5.973c0 5.547 0 5.973 0 5.973s0 0 0 0 0 0 0 0-0.427 0-0.427 0-0.853 0-1.707 0c-1.707 0-3.84 0-7.253 0-6.827 0-17.493 0-32.853 0-17.493 0-32-14.507-32-32s14.507-32 32-32c15.36 0 26.027 0 33.28 0 3.413 0 5.973 0 7.68 0 0.853 0 1.28 0 1.707 0 0 0 0.427 0 0.427 0s0 0 0 0 0 0 0 0 0 0 0 0v0 0c72.533 0.427 131.413 2.56 179.2 10.24 48.213 8.107 87.893 22.613 120.32 50.347 38.827 33.28 57.173 75.947 65.707 130.133 8.107 52.48 8.107 119.467 8.107 203.947 0.427 17.92-14.080 32.427-31.573 32.427zM596.907 36.693c0 2.133 0 3.84 0 5.547v-5.547zM127.573 106.667v0c-23.893 0-42.667-19.2-42.667-42.667s19.2-42.667 42.667-42.667 42.667 19.2 42.667 42.667-19.2 42.667-42.667 42.667zM87.467 394.667c-17.493 0-32-14.507-32-32s14.507-32 32-32c145.067 0 307.2-132.267 307.2-309.333 0-17.493 14.507-32 32-32s32 14.507 32 32c0 220.16-195.84 373.333-371.2 373.333zM85.333 256.427c-17.493 0-32-14.507-32-32s14.507-32 32-32c88.32 0 171.52-83.2 171.52-171.093 0-17.493 14.507-32 32-32s32 14.507 32 32c0 123.307-112.213 235.093-235.52 235.093z" />
<glyph unicode="&#xe913;" glyph-name="rss-error" d="M725.333 416c135.253 0 245.333 110.080 245.333 245.333s-110.080 245.333-245.333 245.333-245.333-110.080-245.333-245.333 110.080-245.333 245.333-245.333zM725.333 842.667c99.84 0 181.333-81.493 181.333-181.333s-81.493-181.333-181.333-181.333-181.333 81.493-181.333 181.333 81.493 181.333 181.333 181.333zM84.48 459.093c17.493-0.427 32.427 13.653 32.853 31.147 2.56 103.253 14.507 148.907 50.347 179.627 39.253 32.853 99.413 42.667 227.413 44.8 17.493 0.427 32 14.933 31.573 32.427-0.427 17.92-14.933 32-32.427 31.573-124.16-1.707-208.64-9.813-267.947-60.16-59.733-50.773-70.4-124.587-72.96-226.56-0.427-17.92 13.653-32.427 31.147-32.853zM938.667 416.427c-17.493 0-32-14.507-32-32 0-86.613 0-147.627-7.253-194.133-7.253-44.8-20.48-71.253-43.947-91.307-20.48-17.493-47.787-29.013-89.173-35.84-42.24-6.827-96.427-8.96-169.387-9.387v-32.427c0 0 0 0 0 0l-0.427 32h-0.427v-5.973c0 5.547 0 5.973 0 5.973s0 0 0 0 0 0 0 0-0.427 0-0.427 0-0.853 0-1.707 0c-1.707 0-3.84 0-7.253 0-6.827 0-17.493 0-32.853 0-17.493 0-32-14.507-32-32s14.507-32 32-32c15.36 0 26.027 0 33.28 0 3.413 0 5.973 0 7.68 0 0.853 0 1.28 0 1.707 0 0 0 0.427 0 0.427 0s0 0 0 0 0 0 0 0 0 0 0 0v0 0c72.533 0.427 131.413 2.56 179.2 10.24 48.213 8.107 87.893 22.613 120.32 50.347 38.827 33.28 57.173 75.947 65.707 130.133 8.107 52.48 8.107 119.467 8.107 203.947 0.427 17.92-14.080 32.427-31.573 32.427zM596.907 36.693c0 2.133 0 3.84 0 5.547v-5.547zM127.573 106.667v0c-23.893 0-42.667-19.2-42.667-42.667s19.2-42.667 42.667-42.667 42.667 19.2 42.667 42.667-19.2 42.667-42.667 42.667zM725.76 533.333c23.467 0 42.667 19.2 42.667 42.667s-19.2 42.667-42.667 42.667h-0.427c-23.467 0-42.667-19.2-42.667-42.667s19.627-42.667 43.093-42.667zM725.333 650.667c17.493 0 32 14.507 32 32v85.333c0 17.493-14.507 32-32 32s-32-14.507-32-32v-85.333c0-17.493 14.507-32 32-32zM85.333 256.427c-17.493 0-32-14.507-32-32s14.507-32 32-32c88.32 0 171.52-83.2 171.52-171.093 0-17.493 14.507-32 32-32s32 14.507 32 32c0 123.307-112.213 235.093-235.52 235.093zM87.467 394.667c-17.493 0-32-14.507-32-32s14.507-32 32-32c145.067 0 307.2-132.267 307.2-309.333 0-17.493 14.507-32 32-32s32 14.507 32 32c0 220.16-195.84 373.333-371.2 373.333z" />
<glyph unicode="&#xe914;" glyph-name="rss-locked" d="M938.667 416c-17.493 0-32-14.507-32-32 0-171.947-2.133-243.2-51.2-285.013-44.373-37.547-115.627-44.373-258.987-45.227-0.427 0-11.947 0-42.24 0-17.493 0-32-14.507-32-32s14.507-32 32-32c30.72 0 42.667 0 43.093 0 139.093 0.853 235.093 5.547 299.52 60.587 73.813 62.72 73.813 159.147 73.813 334.080 0 17.067-14.507 31.573-32 31.573zM543.573 746.667c0 17.493-14.507 32-32 32-209.067 0-313.6 0-385.28-60.587-57.6-49.067-70.4-117.333-72.96-226.56-0.427-17.493 13.653-32.427 31.147-32.853 0.427 0 0.427 0 0.853 0 17.493 0 31.573 13.653 32 31.147 2.56 105.387 14.933 149.333 50.347 179.2 53.76 45.653 150.613 45.653 343.893 45.653 17.493 0 32 14.507 32 32zM615.68 528.64c10.667-26.88 30.72-49.067 57.173-61.013 11.52-5.12 23.467-7.253 35.84-8.107 11.947-0.853 26.453-0.853 43.093-0.853h74.667c17.067 0 31.147 0 43.093 0.853 12.373 0.853 23.893 2.987 35.84 8.107 26.453 11.947 46.933 34.133 57.173 61.013 4.693 11.52 6.4 23.893 7.253 36.267s0.853 27.733 0.853 45.653 0 33.28-0.853 45.653c-0.853 12.8-2.56 24.747-7.253 36.267-10.667 26.88-30.72 49.067-57.173 61.013-2.987 1.707-6.4 2.56-9.387 3.413v45.653c0 58.453-49.067 104.107-106.667 104.107s-106.667-45.653-106.667-104.107v-45.653c-2.987-0.853-6.4-1.707-9.387-2.987-26.453-11.947-46.933-34.133-57.173-61.013-4.693-11.52-6.4-23.893-7.253-36.267s-0.853-27.733-0.853-45.653 0-33.28 0.853-45.653c0.853-13.227 2.56-25.173 6.827-36.693zM789.333 842.667c24.747 0 42.667-19.2 42.667-40.107v-40.107c-1.707 0-3.413 0-5.12 0h-74.667c-2.133 0-3.413 0-5.12 0v40.107c-0.427 20.907 17.493 40.107 42.24 40.107zM672.853 652.373c0.427 9.813 1.707 14.507 2.987 17.493 4.693 11.947 13.227 20.907 23.467 25.6 2.133 0.853 5.973 2.133 14.507 2.56 8.96 0.853 20.48 0.853 38.4 0.853h74.667c17.92 0 29.44 0 38.4-0.853 8.533-0.427 12.373-1.707 14.507-2.56 10.24-4.693 18.773-13.653 23.467-25.6 1.28-2.987 2.133-7.68 2.987-17.493 0.427-9.813 0.853-22.613 0.853-41.813s0-32-0.853-41.813c-0.427-9.813-1.707-14.507-2.987-17.493-4.693-11.947-13.227-20.907-23.467-25.6-2.133-0.853-5.973-2.133-14.507-2.56-8.96-0.853-20.48-0.853-38.4-0.853h-74.667c-17.92 0-29.44 0-38.4 0.853-8.533 0.427-12.373 1.707-14.507 2.56-10.24 4.693-18.773 13.653-23.467 25.6-1.28 2.987-2.133 7.68-2.987 17.493-0.427 9.813-0.853 22.613-0.853 41.813s0 32 0.853 41.813zM127.573 106.667v0c-23.893 0-42.667-19.2-42.667-42.667s19.2-42.667 42.667-42.667 42.667 19.2 42.667 42.667-19.2 42.667-42.667 42.667zM87.467 394.667c-17.493 0-32-14.507-32-32s14.507-32 32-32c145.067 0 307.2-132.267 307.2-309.333 0-17.493 14.507-32 32-32s32 14.507 32 32c0 220.16-195.84 373.333-371.2 373.333zM85.333 256.427c-17.493 0-32-14.507-32-32s14.507-32 32-32c88.32 0 171.52-83.2 171.52-171.093 0-17.493 14.507-32 32-32s32 14.507 32 32c0 123.307-112.213 235.093-235.52 235.093z" />
<glyph unicode="&#xe915;" glyph-name="rss-unlocked" d="M543.573 746.667c0 17.493-14.507 32-32 32-209.067 0-313.6 0-385.28-60.587-57.6-49.067-70.4-117.333-72.96-226.56-0.427-17.493 13.653-32.427 31.147-32.853 0.427 0 0.427 0 0.853 0 17.493 0 31.573 13.653 32 31.147 2.56 105.387 14.933 149.333 50.347 179.2 53.76 45.653 150.613 45.653 343.893 45.653 17.493 0 32 14.507 32 32zM938.667 416c-17.493 0-32-14.507-32-32 0-171.947-2.133-243.2-51.2-285.013-44.373-37.547-115.627-44.373-258.987-45.227-0.427 0-11.947 0-42.24 0-17.493 0-32-14.507-32-32s14.507-32 32-32c30.72 0 42.667 0 43.093 0 139.093 0.853 235.093 5.547 299.52 60.587 73.813 62.72 73.813 159.147 73.813 334.080 0 17.067-14.507 31.573-32 31.573zM664.32 471.040c23.467-12.373 49.493-12.373 96.853-12.373h55.893c47.36 0 73.387 0 96.853 12.373 18.773 9.813 33.707 24.747 43.947 43.52 12.8 23.467 12.8 49.493 12.8 96.427s0 72.96-12.8 96.427c-9.813 18.773-25.173 33.707-43.947 43.52-23.467 12.373-49.493 12.373-96.853 12.373h-55.893c-8.533 0-16.64 0-23.893 0v28.16c0 28.16 23.467 51.2 52.053 51.2 12.373 0 24.32-4.267 34.133-12.373 13.653-11.52 33.707-9.813 45.227 3.84s9.813 33.707-3.84 45.227c-20.907 17.92-47.787 27.733-75.093 27.733-64 0-116.053-51.627-116.053-115.2v-36.267c-2.987-1.28-5.973-2.56-8.96-4.267-18.773-9.813-33.707-24.747-43.947-43.52-12.8-23.467-12.8-49.493-12.8-96.427s0-72.96 12.8-96.427c9.813-18.773 25.173-34.133 43.52-43.947zM677.12 677.12c3.84 7.253 9.813 13.227 17.493 17.493 9.387 4.693 30.72 4.693 66.56 4.693h55.893c35.84 0 57.6 0 66.987-5.12 7.253-3.84 13.653-9.813 17.493-17.493 5.12-9.387 5.12-30.72 5.12-66.133s0-56.747-5.12-66.133c-3.84-7.253-9.813-13.227-17.493-17.493-9.387-5.12-31.147-5.12-66.987-5.12h-55.893c-35.84 0-57.6 0-66.987 5.12-7.253 3.84-13.653 9.813-17.493 17.493-5.12 9.387-5.12 30.72-5.12 66.133 0.427 35.84 0.427 57.173 5.547 66.56zM127.573 106.667v0c-23.893 0-42.667-19.2-42.667-42.667s19.2-42.667 42.667-42.667 42.667 19.2 42.667 42.667-19.2 42.667-42.667 42.667zM87.467 394.667c-17.493 0-32-14.507-32-32s14.507-32 32-32c145.067 0 307.2-132.267 307.2-309.333 0-17.493 14.507-32 32-32s32 14.507 32 32c0 220.16-195.84 373.333-371.2 373.333zM85.333 256.427c-17.493 0-32-14.507-32-32s14.507-32 32-32c88.32 0 171.52-83.2 171.52-171.093 0-17.493 14.507-32 32-32s32 14.507 32 32c0 123.307-112.213 235.093-235.52 235.093z" />
<glyph unicode="&#xe916;" glyph-name="rss" d="M896.853 782.080c-71.68 60.587-176.213 60.587-385.28 60.587s-313.6 0-385.28-60.587c-57.6-49.067-69.973-117.76-72.96-226.56-0.427-17.493 13.653-32.427 31.147-32.853 16.64-1.707 32.427 13.653 32.853 31.147 2.56 105.387 14.933 149.333 50.347 179.2 53.76 45.653 150.613 45.653 343.893 45.653s290.133 0 343.893-45.653c49.493-41.813 51.2-113.493 51.2-285.013s-2.133-243.2-51.2-285.013c-44.373-37.547-115.627-44.373-258.987-45.227-0.427 0-11.947 0-42.24 0-17.493 0-32-14.507-32-32s14.507-32 32-32c30.72 0 42.667 0 43.093 0 139.093 0.853 235.093 5.547 299.52 60.587 73.813 62.72 73.813 159.147 73.813 334.080 0 174.507 0 270.933-73.813 333.653zM127.573 170.667v0c-23.893 0-42.667-19.2-42.667-42.667s19.2-42.667 42.667-42.667 42.667 19.2 42.667 42.667-19.2 42.667-42.667 42.667zM87.467 458.667c-17.493 0-32-14.507-32-32s14.507-32 32-32c145.067 0 307.2-132.267 307.2-309.333 0-17.493 14.507-32 32-32s32 14.507 32 32c0 220.16-195.84 373.333-371.2 373.333zM85.333 320.427c-17.493 0-32-14.507-32-32s14.507-32 32-32c88.32 0 171.52-83.2 171.52-171.093 0-17.493 14.507-32 32-32s32 14.507 32 32c0 123.307-112.213 235.093-235.52 235.093z" />
<glyph unicode="&#xe917;" glyph-name="satellite" d="M429.227 261.12c-52.053 3.84-101.12 52.48-104.96 104.107-1.28 17.493-17.067 30.293-34.133 29.44-17.493-1.28-30.72-16.64-29.44-34.133 6.4-81.92 81.493-156.587 163.84-162.987 0.853 0 1.707 0 2.56 0 16.64 0 30.72 12.8 32 29.44 0.853 17.067-12.373 32.427-29.867 34.133zM374.187 96c-53.333-2.987-108.8 20.48-151.893 63.573-42.24 42.24-64.853 96.427-62.293 148.48 0.853 17.493-12.8 32.853-30.293 33.707-18.347 0.853-32.853-12.8-33.707-30.293-3.413-69.973 26.027-141.653 80.64-196.693 52.907-52.907 121.173-82.773 189.013-82.773 3.84 0 7.253 0 11.093 0.427 17.493 0.853 31.147 15.787 30.293 33.707-0.427 17.493-15.36 31.573-32.853 29.867zM881.493 424.96l-64.853 64.853c16.213 28.587 26.027 61.013 26.027 95.147 0 51.627-20.053 100.267-56.747 136.96-63.147 63.147-159.573 72.96-233.813 29.867l-63.147 65.707c-27.733 27.733-46.507 46.507-75.093 46.507s-46.933-18.347-74.667-46.507l-26.027-26.027c-28.16-27.733-46.507-46.507-46.507-75.093s18.347-46.933 46.507-75.093l61.013-61.013c-11.52-14.507-18.347-28.16-20.907-44.373-1.707-10.667-1.707-21.333 0-31.573 5.12-32.427 27.307-54.613 67.413-94.72l52.48-52.48c40.107-40.107 62.293-62.293 94.72-67.413 5.12-0.853 10.667-1.28 15.787-1.28s10.667 0.427 15.787 1.28c16.213 2.56 29.867 9.387 44.8 20.907l61.013-61.013c27.733-27.733 46.507-46.507 75.093-46.507s46.933 18.347 75.093 46.507l26.027 26.027c27.733 27.733 46.507 46.507 46.507 75.093s-18.347 46.507-46.507 74.24zM358.4 686.933c-12.373 11.947-26.027 26.027-27.733 28.16 1.707 5.12 15.36 18.773 27.733 31.147l26.027 26.027c12.373 12.373 26.027 26.027 28.587 27.733 4.693-1.707 18.773-15.787 30.293-27.307l58.453-61.013-81.067-81.067c-0.853-1.28-1.707-2.133-2.987-3.413l-59.307 59.733zM589.653 352.427c-3.84-0.427-7.68-0.427-11.52 0-11.947 1.707-29.867 19.627-59.733 49.493l-52.053 52.053c-29.867 29.867-47.787 47.787-49.493 59.733-0.427 3.84-0.427 7.68 0 11.52 1.707 11.947 20.053 29.867 49.493 59.733l91.307 91.307c50.773 50.347 132.693 50.347 183.040 0 24.32-24.32 37.973-57.173 37.973-91.733s-13.653-66.987-37.973-91.733l-91.733-91.733c-29.44-29.013-47.36-46.933-59.307-48.64zM836.267 320.427l-26.027-26.027c-12.373-12.373-26.027-26.027-28.587-27.733-4.693 1.707-18.773 15.787-30.72 27.733l-59.307 59.307c1.28 1.28 2.133 2.133 2.987 2.987l82.347 82.347 59.307-59.307c12.373-12.373 26.027-26.027 27.733-28.587-1.707-4.693-15.36-18.347-27.733-30.72z" />
<glyph unicode="&#xe918;" glyph-name="secured-network" d="M555.093 405.333c0 23.467-19.2 42.667-42.667 42.667h-0.427c-23.467 0-42.667-19.2-42.667-42.667s19.2-42.667 42.667-42.667 43.093 19.2 43.093 42.667zM853.333 53.333h-309.333v65.707c143.787 15.787 256 138.24 256 286.293 0 90.027-41.813 170.667-106.667 223.573v95.573c0 100.267-81.493 182.187-181.333 182.187s-181.333-81.92-181.333-182.187v-95.573c-64.853-52.907-106.667-133.547-106.667-223.573 0-148.053 112.213-270.080 256-286.293v-65.707h-309.333c-17.493 0-32-14.507-32-32s14.507-32 32-32h682.667c17.493 0 32 14.507 32 32s-14.507 32-32 32zM394.667 724.48c0 65.28 52.48 118.187 117.333 118.187s117.333-52.907 117.333-118.187v-56.32c-35.84 16.213-75.52 25.173-117.333 25.173s-81.493-8.96-117.333-25.173v56.32zM288 405.333c0 123.733 100.267 224 224 224 123.307 0 224-100.267 224-224 0-123.307-100.693-224-224-224-123.733 0-224 100.693-224 224z" />
<glyph unicode="&#xe919;" glyph-name="security-wifi" d="M913.067 715.947c-9.387 20.48-22.187 38.827-38.827 54.187-26.453 25.173-59.307 37.12-124.587 61.013l-125.867 46.080c-103.68 37.973-120.747 37.973-224.427 0l-125.44-46.080c-65.28-23.893-98.133-35.84-124.587-61.013-16.213-15.36-29.013-33.707-38.4-54.187-14.933-33.28-14.933-67.84-14.933-136.107v-32.853c0-105.387 0-158.293 13.653-209.067 17.067-62.72 49.493-121.173 93.867-169.387 36.267-38.827 81.493-67.84 171.52-125.44 40.533-26.027 63.147-40.107 88.747-47.36 15.787-4.267 32-6.4 48.213-6.4s32.427 2.133 48.213 6.4c25.6 7.253 46.507 20.48 88.747 47.36 90.027 57.6 135.253 86.187 171.52 125.013 44.373 48.213 76.8 106.667 93.867 169.387 13.653 51.2 13.653 103.68 13.653 209.067v33.28c0 68.267 0 102.827-14.933 136.107zM864 546.987c0-99.413 0-149.76-11.52-192.427-14.080-52.907-41.387-101.973-78.933-142.507-30.293-32.853-73.387-60.16-159.573-115.2-36.267-23.040-54.613-34.987-71.253-39.253-20.053-5.547-41.813-5.547-61.867 0-16.213 4.693-34.56 16.213-71.68 39.68-85.333 54.613-128.427 81.92-158.72 114.773-37.547 40.533-64.853 89.6-78.933 142.507-11.52 42.667-11.52 93.013-11.52 192.427v32.853c0 59.307 0 88.747 9.387 109.653 5.973 12.8 14.080 24.32 24.32 34.133 16.64 15.787 45.227 26.453 102.4 47.36l125.867 46.080c46.507 17.067 69.547 25.6 90.027 25.6s43.947-8.533 90.027-25.6l125.867-46.080c57.173-20.907 85.76-31.147 102.4-47.36 10.24-9.813 18.347-21.333 24.32-34.133 9.387-20.907 9.387-50.347 9.387-109.653v-32.853zM621.653 475.307c-66.987 41.813-151.893 41.813-219.307 0.427-14.933-9.387-19.627-29.013-10.24-43.947s29.013-19.627 43.947-10.24c47.787 29.44 104.533 29.44 151.893 0 5.12-3.413 11.093-4.693 17.067-4.693 10.667 0 21.333 5.12 27.307 14.933 8.96 14.080 4.267 34.133-10.667 43.52zM321.28 580.267c-13.653-11.093-15.787-31.147-4.693-44.8s31.147-15.787 45.227-4.693c90.027 73.387 210.773 72.96 300.8-0.427 5.973-4.693 13.227-7.253 20.053-7.253 9.387 0 18.347 3.84 24.747 11.947 11.093 13.653 8.96 33.707-4.693 45.227-112.64 92.16-268.373 92.16-381.44 0zM512.427 362.667v0c-23.893 0-42.667-19.2-42.667-42.667s19.2-42.667 42.667-42.667 42.667 19.2 42.667 42.667-19.2 42.667-42.667 42.667z" />
<glyph unicode="&#xe91a;" glyph-name="shared-wifi" d="M213.333 266.667c-16.213 0-32-3.413-46.933-9.813-32.427 58.453-49.067 123.733-49.067 191.147 0 26.453 2.56 53.333 8.107 78.933 3.413 17.493-7.68 34.133-25.173 37.547-17.067 3.413-34.133-7.68-37.547-25.173-5.973-29.867-9.387-61.013-9.387-91.733 0-82.347 21.76-162.133 63.147-232.533-13.227-19.2-20.48-42.667-20.48-66.133 0-64.853 52.48-117.333 117.333-117.333 33.28 0 64.853 14.080 87.040 38.4 19.627 22.187 30.293 50.347 30.293 79.36 0 64.853-52.48 117.333-117.333 117.333zM253.013 113.493c-10.24-11.093-24.747-17.493-39.68-17.493-29.44 0-53.333 23.893-53.333 53.333 0 14.933 6.4 29.013 17.067 39.253 0 0 0.427 0.427 0.427 0.427 9.813 8.533 22.187 13.653 35.413 13.653 29.44 0 53.333-23.893 53.333-53.333 0.427-13.227-4.267-26.027-13.227-35.84zM810.667 266.667c-64.853 0-117.333-52.48-117.333-117.333 0-16.213 3.413-32 9.813-46.933-81.067-44.8-178.347-59.733-270.080-41.387-17.493 3.413-34.133-7.68-37.547-25.173s7.68-34.133 25.173-37.547c29.867-5.973 61.013-8.96 91.733-8.96 82.347 0 162.133 21.76 232.533 63.147 19.2-13.227 42.667-20.48 66.133-20.48 64.853 0 117.333 52.48 117.333 117.333 0 33.28-14.080 64.853-38.4 87.040-22.187 19.627-50.347 30.293-79.36 30.293zM810.667 96c-14.933 0-29.013 6.4-39.253 17.493 0 0-0.427 0.427-0.427 0.427-8.533 9.813-13.653 22.187-13.653 35.413 0 29.44 23.893 53.333 53.333 53.333 13.227 0 26.027-4.693 35.84-13.653 11.093-10.24 17.493-24.747 17.493-39.68 0-29.44-23.893-53.333-53.333-53.333zM213.333 629.333c64.853 0 117.333 52.48 117.333 117.333 0 16.213-3.413 32-9.813 46.933 81.067 45.227 178.773 59.733 270.080 41.387 17.493-3.413 34.133 7.68 37.547 25.173s-7.68 34.133-25.173 37.547c-110.080 22.187-227.413 2.987-324.267-54.187-18.773 13.227-41.813 20.48-65.707 20.48-64.853 0-117.333-52.48-117.333-117.333 0-33.28 14.080-64.853 38.4-87.040 21.76-19.627 49.92-30.293 78.933-30.293zM213.333 800c14.933 0 29.013-6.4 39.253-17.067 0 0 0.427-0.427 0.427-0.427 8.96-10.24 13.653-22.613 13.653-35.84 0-29.44-23.893-53.333-53.333-53.333-13.227 0-26.027 4.693-35.84 13.653-11.093 10.24-17.493 24.747-17.493 39.68 0 29.44 23.893 53.333 53.333 53.333zM907.52 680.533c12.8 18.773 20.48 41.813 20.48 66.133 0 64.853-52.48 117.333-117.333 117.333-33.28 0-64.853-14.080-87.040-38.4-19.627-21.76-30.293-49.92-30.293-78.933 0-64.853 52.48-117.333 117.333-117.333 16.64 0 32.427 3.413 46.933 9.813 32.427-58.453 49.067-123.733 49.067-191.147 0-26.453-2.56-52.907-8.107-78.933-3.413-17.493 7.68-34.133 25.173-37.547 2.133-0.427 4.267-0.427 6.4-0.427 14.933 0 28.16 10.667 31.147 25.6 5.973 30.293 8.96 61.013 8.96 91.733 0.427 81.92-21.333 161.707-62.72 232.107zM810.667 693.333c-29.44 0-53.333 23.893-53.333 53.333 0 13.227 4.693 26.027 13.653 35.84 10.24 11.093 24.747 17.493 39.68 17.493 29.44 0 53.333-23.893 53.333-53.333s-23.893-53.333-53.333-53.333zM662.613 487.68c5.973-4.693 13.227-7.253 20.053-7.253 9.387 0 18.347 3.84 24.747 11.947 11.093 13.653 8.96 33.707-4.693 45.227-113.067 92.16-268.8 92.587-381.867 0.427-13.653-11.093-15.787-31.147-4.693-45.227 11.093-13.653 31.147-15.787 45.227-4.693 90.027 73.387 211.2 72.96 301.227-0.427zM436.053 378.453c47.787 29.44 104.533 29.44 151.893 0 5.12-3.413 11.093-4.693 17.067-4.693 10.667 0 21.333 5.12 27.307 14.933 9.387 14.933 4.693 34.56-10.24 43.947-66.987 41.813-151.893 41.813-219.307 0.427-14.933-9.387-19.627-29.013-10.24-43.947 8.96-15.36 28.587-20.053 43.52-10.667zM512 320c-23.467 0-42.667-19.2-42.667-42.667s19.2-42.667 42.667-42.667 42.667 19.2 42.667 42.667-18.773 42.667-42.667 42.667v0z" />
<glyph unicode="&#xe91b;" glyph-name="signal-full-01" d="M369.493 728.32c-1.707 4.267-3.413 8.107-5.547 11.947-22.187 38.4-67.84 38.4-150.613 38.4s-128.427 0-150.613-38.4c-2.133-3.84-4.267-7.68-5.547-11.947-14.933-40.96 13.227-77.227 64.427-142.933l32-40.96c9.387-12.373 18.347-23.040 27.733-30.72v-364.373c0-17.493 14.507-32 32-32s32 14.507 32 32v363.947c9.387 7.68 18.347 18.773 27.733 30.72l32 40.96c51.2 66.133 79.36 102.4 64.427 143.36zM254.293 624.64l-31.573-40.96c-3.413-3.84-6.4-8.107-9.387-11.947-2.987 3.84-5.973 8.107-9.387 11.947l-31.573 40.96c-27.307 34.987-55.893 71.253-54.613 83.2 8.107 6.827 52.48 6.827 95.573 6.827s87.467 0 96-8.107c0.853-10.667-27.733-46.933-55.040-81.92zM384 394.667c-17.493 0-32-14.507-32-32v-213.333c0-17.493 14.507-32 32-32s32 14.507 32 32v213.333c0 17.493-14.507 32-32 32zM554.667 522.667c-17.493 0-32-14.507-32-32v-341.333c0-17.493 14.507-32 32-32s32 14.507 32 32v341.333c0 17.493-14.507 32-32 32zM725.333 565.333c-17.493 0-32-14.507-32-32v-384c0-17.493 14.507-32 32-32s32 14.507 32 32v384c0 17.493-14.507 32-32 32zM896 693.333c-17.493 0-32-14.507-32-32v-512c0-17.493 14.507-32 32-32s32 14.507 32 32v512c0 17.493-14.507 32-32 32z" />
<glyph unicode="&#xe91c;" glyph-name="signal-full-02" d="M213.333 394.667c-46.080 0-73.387 0-95.573-21.76s-21.76-49.493-21.76-95.573v-42.667c0-46.080 0-73.387 21.76-95.573s49.493-21.76 95.573-21.76 73.387 0 95.573 21.76 21.76 49.493 21.76 95.573v42.667c0 46.080 0 73.387-21.76 95.573s-49.493 21.76-95.573 21.76zM266.667 234.667c0-21.333 0-45.653-2.987-50.347-4.693-2.987-29.013-2.987-50.347-2.987s-45.653 0-50.347 2.987c-2.987 4.693-2.987 29.013-2.987 50.347v42.667c0 21.333 0 45.653 2.987 50.347 4.693 2.987 29.013 2.987 50.347 2.987s45.653 0 50.347-2.987c2.987-4.693 2.987-29.013 2.987-50.347v-42.667zM512 565.333c-46.080 0-73.387 0-95.573-21.76s-21.76-49.493-21.76-95.573v-213.333c0-46.080 0-73.387 21.76-95.573s49.493-21.76 95.573-21.76c46.080 0 73.387 0 95.573 21.76s21.76 49.493 21.76 95.573v213.333c0 46.080 0 73.387-21.76 95.573s-49.493 21.76-95.573 21.76zM565.333 234.667c0-21.333 0-45.653-2.987-50.347-4.693-2.987-29.013-2.987-50.347-2.987s-45.653 0-50.347 2.987c-2.987 4.693-2.987 29.013-2.987 50.347v213.333c0 21.333 0 45.653 2.987 50.347 4.693 2.987 29.013 2.987 50.347 2.987s45.653 0 50.347-2.987c2.987-4.693 2.987-29.013 2.987-50.347v-213.333zM906.24 714.24c-22.187 21.76-49.493 21.76-95.573 21.76s-73.387 0-95.573-21.76-21.76-49.493-21.76-95.573v-384c0-46.080 0-73.387 21.76-95.573s49.493-21.76 95.573-21.76 73.387 0 95.573 21.76 21.76 49.493 21.76 95.573v384c0 46.080 0 73.387-21.76 95.573zM864 234.667c0-21.333 0-45.653-2.987-50.347-9.387-6.4-91.307-6.4-100.267 0-2.987 4.693-2.987 29.013-2.987 50.347v384c0 21.333 0 45.653 2.987 50.347 4.267 2.987 28.587 2.987 49.92 2.987s45.653 0 50.347-2.987c2.987-4.693 2.987-29.013 2.987-50.347v-384z" />
<glyph unicode="&#xe91d;" glyph-name="signal-low-01" d="M412.16 728.32c-1.707 4.267-3.413 8.107-5.547 11.947-22.187 38.4-67.84 38.4-150.613 38.4s-128.427 0-150.613-38.4c-2.133-3.84-4.267-7.68-5.547-11.947-14.933-40.96 13.227-77.227 64.427-142.933l32-40.96c9.387-12.373 18.347-23.040 27.733-30.72v-364.373c0-17.493 14.507-32 32-32s32 14.507 32 32v363.947c9.387 7.68 18.347 18.773 27.733 30.72l32 40.96c51.2 66.133 79.36 102.4 64.427 143.36zM296.96 624.64l-31.573-40.96c-3.413-3.84-6.4-8.107-9.387-11.947-2.987 3.84-5.973 8.107-9.387 11.947l-31.573 40.96c-27.307 34.987-55.893 71.253-54.613 83.2 8.107 6.827 52.48 6.827 95.573 6.827s87.467 0 96-8.107c0.853-10.667-27.733-46.933-55.040-81.92zM426.667 437.333c-17.493 0-32-14.507-32-32v-256c0-17.493 14.507-32 32-32s32 14.507 32 32v256c0 17.493-14.507 32-32 32zM597.333 181.333h-42.667c-17.493 0-32-14.507-32-32s14.507-32 32-32h42.667c17.493 0 32 14.507 32 32s-14.507 32-32 32zM768 181.333h-42.667c-17.493 0-32-14.507-32-32s14.507-32 32-32h42.667c17.493 0 32 14.507 32 32s-14.507 32-32 32zM938.667 181.333h-42.667c-17.493 0-32-14.507-32-32s14.507-32 32-32h42.667c17.493 0 32 14.507 32 32s-14.507 32-32 32z" />
<glyph unicode="&#xe91e;" glyph-name="signal-low-02" d="M896 181.333h-128c-17.493 0-32-14.507-32-32s14.507-32 32-32h128c17.493 0 32 14.507 32 32s-14.507 32-32 32zM597.333 181.333h-128c-17.493 0-32-14.507-32-32s14.507-32 32-32h128c17.493 0 32 14.507 32 32s-14.507 32-32 32zM213.333 394.667c-46.080 0-73.387 0-95.573-21.76s-21.76-49.493-21.76-95.573v-42.667c0-46.080 0-73.387 21.76-95.573s49.493-21.76 95.573-21.76 73.387 0 95.573 21.76 21.76 49.493 21.76 95.573v42.667c0 46.080 0 73.387-21.76 95.573s-49.493 21.76-95.573 21.76zM266.667 234.667c0-21.333 0-45.653-2.987-50.347-4.693-2.987-29.013-2.987-50.347-2.987s-45.653 0-50.347 2.987c-2.987 4.693-2.987 29.013-2.987 50.347v42.667c0 21.333 0 45.653 2.987 50.347 4.693 2.987 29.013 2.987 50.347 2.987s45.653 0 50.347-2.987c2.987-4.693 2.987-29.013 2.987-50.347v-42.667z" />
<glyph unicode="&#xe91f;" glyph-name="signal-low-medium" d="M369.493 728.32c-1.707 4.267-3.413 8.107-5.547 11.947-22.187 38.4-67.84 38.4-150.613 38.4s-128.427 0-150.613-38.4c-2.133-3.84-4.267-7.68-5.547-11.947-14.933-40.96 13.227-77.227 64.427-142.933l32-40.96c9.387-12.373 18.347-23.040 27.733-30.72v-364.373c0-17.493 14.507-32 32-32s32 14.507 32 32v363.947c9.387 7.68 18.347 18.773 27.733 30.72l32 40.96c51.2 66.133 79.36 102.4 64.427 143.36zM254.293 624.64l-31.573-40.96c-3.413-3.84-6.4-8.107-9.387-11.947-2.987 3.84-5.973 8.107-9.387 11.947l-31.573 40.96c-27.307 34.987-55.893 71.253-54.613 83.2 8.107 6.827 52.48 6.827 95.573 6.827s87.467 0 96-8.107c0.853-10.667-27.733-46.933-55.040-81.92zM384 437.333c-17.493 0-32-14.507-32-32v-256c0-17.493 14.507-32 32-32s32 14.507 32 32v256c0 17.493-14.507 32-32 32zM554.667 522.667c-17.493 0-32-14.507-32-32v-341.333c0-17.493 14.507-32 32-32s32 14.507 32 32v341.333c0 17.493-14.507 32-32 32zM768 181.333h-42.667c-17.493 0-32-14.507-32-32s14.507-32 32-32h42.667c17.493 0 32 14.507 32 32s-14.507 32-32 32zM938.667 181.333h-42.667c-17.493 0-32-14.507-32-32s14.507-32 32-32h42.667c17.493 0 32 14.507 32 32s-14.507 32-32 32z" />
<glyph unicode="&#xe920;" glyph-name="signal-medium-01" d="M369.493 728.32c-1.707 4.267-3.413 8.107-5.547 11.947-22.187 38.4-67.84 38.4-150.613 38.4s-128.427 0-150.613-38.4c-2.133-3.84-4.267-7.68-5.547-11.947-14.933-40.96 13.227-77.227 64.427-142.933l32-40.96c9.387-12.373 18.347-23.040 27.733-30.72v-364.373c0-17.493 14.507-32 32-32s32 14.507 32 32v363.947c9.387 7.68 18.347 18.773 27.733 30.72l32 40.96c51.2 66.133 79.36 102.4 64.427 143.36zM254.293 624.64l-31.573-40.96c-3.413-3.84-6.4-8.107-9.387-11.947-2.987 3.84-5.973 8.107-9.387 11.947l-31.573 40.96c-27.307 34.987-55.893 71.253-54.613 83.2 8.107 6.827 52.48 6.827 95.573 6.827s87.467 0 96-8.107c0.853-10.667-27.733-46.933-55.040-81.92zM384 437.333c-17.493 0-32-14.507-32-32v-256c0-17.493 14.507-32 32-32s32 14.507 32 32v256c0 17.493-14.507 32-32 32zM554.667 522.667c-17.493 0-32-14.507-32-32v-341.333c0-17.493 14.507-32 32-32s32 14.507 32 32v341.333c0 17.493-14.507 32-32 32zM725.333 565.333c-17.493 0-32-14.507-32-32v-384c0-17.493 14.507-32 32-32s32 14.507 32 32v384c0 17.493-14.507 32-32 32zM938.667 181.333h-42.667c-17.493 0-32-14.507-32-32s14.507-32 32-32h42.667c17.493 0 32 14.507 32 32s-14.507 32-32 32z" />
<glyph unicode="&#xe921;" glyph-name="signal-medium-02" d="M896 181.333h-128c-17.493 0-32-14.507-32-32s14.507-32 32-32h128c17.493 0 32 14.507 32 32s-14.507 32-32 32zM213.333 394.667c-46.080 0-73.387 0-95.573-21.76s-21.76-49.493-21.76-95.573v-42.667c0-46.080 0-73.387 21.76-95.573s49.493-21.76 95.573-21.76 73.387 0 95.573 21.76 21.76 49.493 21.76 95.573v42.667c0 46.080 0 73.387-21.76 95.573s-49.493 21.76-95.573 21.76zM266.667 234.667c0-21.333 0-45.653-2.987-50.347-4.693-2.987-29.013-2.987-50.347-2.987s-45.653 0-50.347 2.987c-2.987 4.693-2.987 29.013-2.987 50.347v42.667c0 21.333 0 45.653 2.987 50.347 4.693 2.987 29.013 2.987 50.347 2.987s45.653 0 50.347-2.987c2.987-4.693 2.987-29.013 2.987-50.347v-42.667zM512 565.333c-46.080 0-73.387 0-95.573-21.76s-21.76-49.493-21.76-95.573v-213.333c0-46.080 0-73.387 21.76-95.573s49.493-21.76 95.573-21.76c46.080 0 73.387 0 95.573 21.76s21.76 49.493 21.76 95.573v213.333c0 46.080 0 73.387-21.76 95.573s-49.493 21.76-95.573 21.76zM565.333 234.667c0-21.333 0-45.653-2.987-50.347-4.693-2.987-29.013-2.987-50.347-2.987s-45.653 0-50.347 2.987c-2.987 4.693-2.987 29.013-2.987 50.347v213.333c0 21.333 0 45.653 2.987 50.347 4.693 2.987 29.013 2.987 50.347 2.987s45.653 0 50.347-2.987c2.987-4.693 2.987-29.013 2.987-50.347v-213.333z" />
<glyph unicode="&#xe922;" glyph-name="signal-no-01" d="M369.493 728.32c-1.707 4.267-3.413 8.107-5.547 11.947-22.187 38.4-67.84 38.4-150.613 38.4s-128.427 0-150.613-38.4c-2.133-3.84-4.267-7.68-5.547-11.947-14.933-40.96 13.227-77.227 64.427-142.933l32-40.96c9.387-12.373 18.347-23.040 27.733-30.72v-364.373c0-17.493 14.507-32 32-32s32 14.507 32 32v363.947c9.387 7.68 18.347 18.773 27.733 30.72l32 40.96c51.2 66.133 79.36 102.4 64.427 143.36zM254.293 624.64l-31.573-40.96c-3.413-3.84-6.4-8.107-9.387-11.947-2.987 3.84-5.973 8.107-9.387 11.947l-31.573 40.96c-27.307 34.987-55.893 71.253-54.613 83.2 8.107 6.827 52.48 6.827 95.573 6.827s87.467 0 96-8.107c0.853-10.667-27.733-46.933-55.040-81.92zM808.96 598.613c-12.373 12.373-32.853 12.373-45.227 0l-105.387-105.387-105.387 105.387c-12.373 12.373-32.853 12.373-45.227 0s-12.373-32.853 0-45.227l105.387-105.387-105.387-105.387c-12.373-12.373-12.373-32.853 0-45.227s32.853-12.373 45.227 0l105.387 105.387 105.387-105.387c6.4-6.4 14.507-9.387 22.613-9.387s16.213 2.987 22.613 9.387c12.373 12.373 12.373 32.853 0 45.227l-105.387 105.387 105.387 105.387c12.373 12.373 12.373 32.853 0 45.227zM554.667 181.333h-42.667c-17.493 0-32-14.507-32-32s14.507-32 32-32h42.667c17.493 0 32 14.507 32 32s-14.507 32-32 32zM384 181.333h-42.667c-17.493 0-32-14.507-32-32s14.507-32 32-32h42.667c17.493 0 32 14.507 32 32s-14.507 32-32 32zM725.333 181.333h-42.667c-17.493 0-32-14.507-32-32s14.507-32 32-32h42.667c17.493 0 32 14.507 32 32s-14.507 32-32 32zM896 181.333h-42.667c-17.493 0-32-14.507-32-32s14.507-32 32-32h42.667c17.493 0 32 14.507 32 32s-14.507 32-32 32z" />
<glyph unicode="&#xe923;" glyph-name="signal-no-02" d="M896 181.333h-128c-17.493 0-32-14.507-32-32s14.507-32 32-32h128c17.493 0 32 14.507 32 32s-14.507 32-32 32zM576 181.333h-128c-17.493 0-32-14.507-32-32s14.507-32 32-32h128c17.493 0 32 14.507 32 32s-14.507 32-32 32zM256 181.333h-128c-17.493 0-32-14.507-32-32s14.507-32 32-32h128c17.493 0 32 14.507 32 32s-14.507 32-32 32zM683.947 769.28c-12.373 12.373-32.853 12.373-45.227 0l-148.053-148.053-148.053 148.053c-12.373 12.373-32.853 12.373-45.227 0s-12.373-32.853 0-45.227l148.053-148.053-148.053-148.053c-12.373-12.373-12.373-32.853 0-45.227s32.853-12.373 45.227 0l148.053 148.053 148.053-148.053c6.4-6.4 14.507-9.387 22.613-9.387s16.213 2.987 22.613 9.387c12.373 12.373 12.373 32.853 0 45.227l-148.053 148.053 148.053 148.053c12.373 12.373 12.373 32.853 0 45.227z" />
<glyph unicode="&#xe924;" glyph-name="smartphone-lost-wifi" d="M640 416c-17.493 0-32-14.507-32-32v-123.733c0-103.68 0-156.16-25.173-181.76-23.893-24.32-69.12-25.6-177.493-25.6s-153.6 0.853-177.493 25.6c-25.173 25.6-25.173 77.653-25.173 181.76v204.8c0 103.68 0 156.16 25.173 181.76 17.067 17.493 46.080 23.893 113.92 25.173 17.92 0.427 32 14.933 31.573 32.427s-14.507 31.573-32 31.573c0 0-0.427 0-0.427 0-64-1.28-120.32-5.12-158.72-44.373-43.52-44.373-43.52-109.227-43.52-226.56v-204.8c0-117.333 0-182.187 43.52-226.56 43.947-44.373 107.52-44.373 223.147-44.373s179.2 0 223.147 44.373c43.52 44.373 43.52 109.227 43.52 226.56v123.733c0 17.92-14.507 32-32 32zM405.76 106.667c23.467 0 42.667 19.2 42.667 42.667s-19.2 42.667-42.667 42.667h-0.427c-23.467 0-42.667-19.2-42.667-42.667s19.627-42.667 43.093-42.667zM873.387 820.48c-66.133 54.187-146.347 86.187-232.96 86.187-8.107 0-15.787-0.427-23.893-0.853-17.493-1.28-31.147-16.64-29.867-34.133s16.64-31.147 34.133-29.867c6.4 0.427 12.8 0.853 19.627 0.853 70.4 0 136.533-26.027 192.853-71.68 13.653-11.093 33.707-8.96 45.227 4.693 10.667 13.653 8.533 33.707-5.12 44.8zM491.947 897.28c-12.373 12.373-32.853 12.373-45.227 0s-12.373-32.853 0-45.227l2.133-2.133c-14.507-8.96-28.587-18.773-42.24-29.867-14.080-11.093-15.787-31.147-4.693-44.8s31.147-15.787 45.227-4.693c15.36 12.8 31.573 23.040 48.64 32.853l84.053-84.053c-25.6-6.4-49.92-16.64-72.533-30.72-14.933-9.387-19.627-29.013-10.24-43.947s29.013-19.627 43.947-10.24c29.013 17.92 61.013 28.16 94.72 29.013l109.653-109.653c6.4-6.4 14.507-9.387 22.613-9.387s16.213 2.987 22.613 9.387c12.373 12.373 12.373 32.853 0 45.227l-298.667 298.24zM640.427 576v0c-23.893 0-42.667-19.2-42.667-42.667s19.2-42.667 42.667-42.667 42.667 19.2 42.667 42.667-19.2 42.667-42.667 42.667z" />
<glyph unicode="&#xe925;" glyph-name="smartphone-wifi" d="M640 416c-17.493 0-32-14.507-32-32v-123.733c0-103.68 0-156.16-25.173-181.76-23.893-24.32-69.12-25.6-177.493-25.6s-153.6 0.853-177.493 25.6c-25.173 25.6-25.173 77.653-25.173 181.76v204.8c0 103.68 0 156.16 25.173 181.76 17.067 17.493 46.080 23.893 113.92 25.173 17.92 0.427 32 14.933 31.573 32.427s-14.507 31.573-32 31.573c0 0-0.427 0-0.427 0-64-1.28-120.32-5.12-158.72-44.373-43.52-44.373-43.52-109.227-43.52-226.56v-204.8c0-117.333 0-182.187 43.52-226.56 43.947-44.373 107.52-44.373 223.147-44.373s179.2 0 223.147 44.373c43.52 44.373 43.52 109.227 43.52 226.56v123.733c0 17.92-14.507 32-32 32zM405.76 106.667c23.467 0 42.667 19.2 42.667 42.667s-19.2 42.667-42.667 42.667h-0.427c-23.467 0-42.667-19.2-42.667-42.667s19.627-42.667 43.093-42.667zM873.387 820.053c-69.12 56.747-150.187 86.613-233.813 86.613s-164.267-29.867-233.387-86.187c-13.227-11.093-15.36-31.147-4.267-44.8s31.147-15.787 44.8-4.693c115.2 93.867 270.933 93.867 386.133-0.427 5.973-4.693 13.227-7.253 20.053-7.253 9.387 0 18.347 3.84 24.747 11.947 11.52 13.653 9.387 33.707-4.267 44.8zM772.693 688.64c-81.493 50.773-184.32 50.773-265.813 0.427-14.933-9.387-19.627-29.013-10.24-43.947s29.013-19.627 43.947-10.24c62.293 38.4 136.107 38.4 198.4-0.427 5.12-3.413 11.093-4.693 17.067-4.693 10.667 0 21.333 5.12 27.307 14.933 8.96 14.933 4.693 34.56-10.667 43.947zM640.427 576v0c-23.893 0-42.667-19.2-42.667-42.667s19.2-42.667 42.667-42.667 42.667 19.2 42.667 42.667-19.2 42.667-42.667 42.667z" />
<glyph unicode="&#xe926;" glyph-name="wifi-01" d="M329.387 363.947c-12.373-12.373-12.373-32.853 0-45.227s32.853-12.373 45.227 0c72.96 72.96 201.387 72.96 274.773 0 6.4-6.4 14.507-9.387 22.613-9.387s16.213 2.987 22.613 9.387c12.373 12.373 12.373 32.853 0 45.227-97.28 97.28-267.947 97.28-365.227 0zM214.187 494.080c-13.653-11.52-15.36-31.573-4.267-45.227 6.4-7.68 15.36-11.52 24.747-11.52 7.253 0 14.507 2.56 20.48 7.253 158.293 131.84 364.373 132.267 512.853 0.427 13.227-11.52 33.28-10.667 45.227 2.56 11.52 13.227 10.667 33.28-2.56 45.227-173.227 153.6-413.013 154.027-596.48 1.28zM959.147 621.653c-280.32 236.373-614.4 236.373-894.72 0-13.227-11.093-14.933-31.573-3.413-44.8 6.4-7.68 15.36-11.52 24.32-11.52 7.253 0 14.507 2.56 20.48 7.68 258.133 218.027 554.24 218.027 811.947 0 13.653-11.52 33.707-9.813 45.227 3.84 11.52 13.227 9.813 33.707-3.84 44.8zM512 288c-52.907 0-96-43.093-96-96s43.093-96 96-96c52.907 0 96 43.093 96 96s-43.093 96-96 96zM512 160c-17.493 0-32 14.507-32 32s14.507 32 32 32 32-14.507 32-32-14.507-32-32-32z" />
<glyph unicode="&#xe927;" glyph-name="wifi-02" d="M512.427 213.333h-0.427c-23.467 0-42.24-19.2-42.24-42.667s19.2-42.667 43.093-42.667 42.667 19.2 42.667 42.667-19.627 42.667-43.093 42.667zM329.387 321.28c-12.373-12.373-12.373-32.853 0-45.227s32.853-12.373 45.227 0c72.96 72.96 201.387 73.387 274.773 0 6.4-6.4 14.507-9.387 22.613-9.387s16.213 2.987 22.613 9.387c12.373 12.373 12.373 32.853 0 45.227-97.28 97.28-267.947 97.28-365.227 0zM214.187 451.413c-13.653-11.52-15.36-31.573-4.267-45.227 6.4-7.68 15.36-11.52 24.747-11.52 7.253 0 14.507 2.56 20.48 7.253 158.293 131.84 364.373 132.267 512.853 0.427 13.227-11.52 33.28-10.667 45.227 2.56 11.52 13.227 10.667 33.28-2.56 45.227-173.227 153.6-413.013 154.027-596.48 1.28zM959.147 578.987c-280.32 236.373-614.4 236.373-894.72 0-13.227-11.093-14.933-31.573-3.413-44.8 6.4-7.68 15.36-11.52 24.32-11.52 7.253 0 14.507 2.56 20.48 7.68 258.133 218.027 554.24 218.027 811.947 0 13.653-11.52 33.707-9.813 45.227 3.84 11.52 13.227 9.813 33.707-3.84 44.8z" />
<glyph unicode="&#xe928;" glyph-name="wifi-circle" d="M512 906.667c-253.013 0-458.667-205.653-458.667-458.667s205.653-458.667 458.667-458.667 458.667 205.653 458.667 458.667-205.653 458.667-458.667 458.667zM512 53.333c-217.6 0-394.667 177.067-394.667 394.667s177.067 394.667 394.667 394.667 394.667-177.067 394.667-394.667-177.067-394.667-394.667-394.667zM322.56 545.707c-14.507-10.24-17.493-30.293-7.253-44.8s30.293-17.493 44.8-7.253c90.453 65.707 213.333 65.28 303.787-0.427 5.547-4.267 12.373-5.973 18.773-5.973 9.813 0 19.627 4.693 26.027 13.227 10.24 14.507 7.253 34.133-7.253 44.8-112.64 81.92-266.24 81.92-378.88 0.427zM620.373 433.493c-66.987 37.12-149.333 37.12-216.747 0.427-15.36-8.533-21.333-28.16-12.373-43.52 8.533-15.36 28.16-21.333 43.52-12.373 48.64 26.453 106.24 26.453 154.453 0 5.12-2.56 10.24-3.84 15.36-3.84 11.093 0 22.187 5.973 28.16 16.64 8.533 14.507 2.987 33.707-12.373 42.667zM512.427 320v0c-23.893 0-42.667-19.2-42.667-42.667s19.2-42.667 42.667-42.667 42.667 19.2 42.667 42.667-19.2 42.667-42.667 42.667z" />
<glyph unicode="&#xe929;" glyph-name="wifi-connected-01" d="M512 117.333c-25.6 0-57.173 43.093-109.227 113.92l-20.48 29.867c92.587 39.253 194.987 35.84 285.44-11.947 0.853-0.427 2.133-0.427 2.987-0.853 2.987-1.28 5.973-2.133 8.96-2.133 0.853 0 1.707-0.853 2.56-0.853s1.28 0.427 1.707 0.427c4.693 0.427 9.387 1.28 13.653 3.84 0.427 0 0.427 0 0.853 0.427 3.84 2.133 6.827 5.12 9.387 8.533l192.427 267.52c47.787 65.28 76.8 104.96 67.84 158.72-8.96 54.187-46.080 78.080-101.547 114.773-106.667 69.973-229.547 107.093-355.413 107.093s-248.747-37.12-355.413-107.093c-55.040-36.693-91.733-60.587-100.693-114.773-8.96-53.76 20.053-93.013 67.413-157.867l228.267-332.8c66.56-90.88 103.253-140.8 161.28-140.8 17.493 0 32 14.507 32 32s-14.507 32-32 32zM345.6 314.453l-63.147 92.16c144.213 68.693 310.187 69.547 454.827 1.707l-65.707-90.88c-104.96 46.507-221.013 45.227-325.973-2.987zM246.187 459.52l-53.76 78.080c200.96 122.027 437.333 122.027 638.293 0.427l-55.467-76.8c-167.68 82.347-361.813 81.92-529.067-1.707zM118.187 674.133c4.267 25.6 20.053 36.693 73.387 72.107 96 63.147 206.933 96.427 320.427 96.427s224-33.28 320.427-96.427c53.76-35.413 69.12-46.507 73.813-72.107 3.413-21.76-6.827-41.387-37.547-84.053-224.427 138.24-488.96 138.24-713.387 0-30.293 42.667-40.96 62.293-37.12 84.053zM928 350.293c-96-33.707-195.84-160-243.627-226.987-40.533 55.040-78.507 58.027-87.040 58.027-17.493 0-33.28-14.080-33.28-32 0-17.493 13.227-32 30.72-32 0.427 0 27.733-5.12 58.88-67.84 5.12-10.24 15.36-17.067 26.88-17.493 0.427 0 1.28 0 1.707 0 11.093 0 21.333 5.547 26.88 14.933 36.267 56.747 149.333 211.2 239.787 243.2 16.64 5.973 25.6 24.32 19.627 40.96-5.547 16.213-23.893 25.173-40.533 19.2z" />
<glyph unicode="&#xe92a;" glyph-name="wifi-connected-02" d="M214.187 494.080c-13.653-11.52-15.36-31.573-4.267-45.227 6.4-7.68 15.36-11.52 24.747-11.52 7.253 0 14.507 2.56 20.48 7.253 158.293 131.84 364.373 132.267 512.853 0.427 13.227-11.52 33.28-10.667 45.227 2.56 11.52 13.227 10.667 33.28-2.56 45.227-173.227 153.6-413.013 154.027-596.48 1.28zM959.147 642.987c-280.32 236.373-614.4 236.373-894.72 0-13.227-11.093-14.933-31.573-3.413-44.8 6.4-7.68 15.36-11.52 24.32-11.52 7.253 0 14.507 2.56 20.48 7.68 258.133 218.027 554.24 218.027 811.947 0 13.653-11.52 33.707-9.813 45.227 3.84 11.52 13.227 9.813 33.707-3.84 44.8zM665.6 368.213c-78.933-49.92-154.88-146.773-194.56-202.667-40.533 55.040-78.507 58.453-87.040 58.453-17.493 0-33.28-14.080-33.28-32 0-17.493 13.227-32 30.72-32 0.427 0 27.733-5.12 59.307-67.84 5.12-10.24 15.36-17.067 26.88-17.493 0.427 0 1.28 0 1.707 0 11.093 0 20.907 5.547 26.88 14.933 0.853 1.707 103.253 161.28 203.52 224.853 14.933 9.387 19.2 29.44 9.813 44.373s-29.013 18.773-43.947 9.387z" />
<glyph unicode="&#xe92b;" glyph-name="wifi-connected-03" d="M512.427 149.333h-0.427c-23.467 0-42.24-19.2-42.24-42.667s19.2-42.667 43.093-42.667 42.667 19.2 42.667 42.667-19.627 42.667-43.093 42.667zM329.387 257.28c-12.373-12.373-12.373-32.853 0-45.227s32.853-12.373 45.227 0c72.96 72.96 201.387 72.96 274.773 0 6.4-6.4 14.507-9.387 22.613-9.387s16.213 2.987 22.613 9.387c12.373 12.373 12.373 32.853 0 45.227-97.28 97.28-267.947 97.28-365.227 0zM214.187 387.413c-13.653-11.52-15.36-31.573-4.267-45.227 6.4-7.68 15.36-11.52 24.747-11.52 7.253 0 14.507 2.56 20.48 7.253 158.293 131.84 364.373 132.267 512.853 0.427 13.227-11.52 33.28-10.667 45.227 2.56 11.52 13.227 10.667 33.28-2.56 45.227-173.227 153.6-413.013 154.027-596.48 1.28zM544 661.333c0 17.493-14.507 32-32 32-154.453 0-309.333-61.44-447.147-178.347-13.653-11.52-15.36-31.573-3.84-45.227 6.4-7.68 15.36-11.52 24.32-11.52 7.253 0 14.507 2.56 20.48 7.68 126.72 107.093 267.093 163.413 406.187 163.413 17.493 0 32 14.507 32 32zM965.547 806.4c-9.387 14.933-29.013 19.627-44.373 9.813-78.933-49.92-154.88-146.773-194.56-202.667-40.107 55.040-78.080 58.453-86.613 58.453-17.493 0-33.28-14.080-33.28-32s13.227-32 30.72-32c0.427 0 27.733-5.12 58.88-67.84 5.12-10.24 15.36-17.067 26.88-17.493 0.427 0 1.28 0 1.707 0 11.093 0 21.333 5.547 26.88 14.933 0.853 1.707 103.253 161.28 203.52 224.853 15.36 9.387 20.053 29.013 10.24 43.947z" />
<glyph unicode="&#xe92c;" glyph-name="wifi-disconnected-01" d="M487.253 372.053c-55.040-5.973-105.813-30.72-147.2-72.107-12.373-12.373-12.373-32.853 0-45.227 6.4-6.4 14.507-9.387 22.613-9.387s16.213 2.987 22.613 9.387c30.72 30.72 68.267 49.493 108.8 53.76 17.493 1.707 30.293 17.493 28.587 35.413s-17.92 29.867-35.413 28.16zM667.307 482.56c15.36-8.533 34.987-2.987 43.52 12.373s2.987 34.987-12.373 43.52c-160 88.32-341.76 55.040-485.973-89.173-12.373-12.373-12.373-32.853 0-45.227 6.4-6.4 14.507-9.387 22.613-9.387s16.213 2.987 22.613 9.387c122.453 122.88 275.627 152.32 409.6 78.507zM959.147 621.653c-280.32 236.373-614.4 236.373-894.72 0-13.227-11.093-14.933-31.573-3.413-44.8 6.4-7.68 15.36-11.52 24.32-11.52 7.253 0 14.507 2.56 20.48 7.68 258.133 218.027 554.24 218.027 811.947 0 13.653-11.52 33.707-9.813 45.227 3.84 11.52 13.227 9.813 33.707-3.84 44.8zM918.613 406.613c-12.373 12.373-32.853 12.373-45.227 0l-105.387-105.387-105.387 105.387c-12.373 12.373-32.853 12.373-45.227 0s-12.373-32.853 0-45.227l105.387-105.387-105.387-105.387c-12.373-12.373-12.373-32.853 0-45.227s32.853-12.373 45.227 0l105.387 105.387 105.387-105.387c6.4-6.4 14.507-9.387 22.613-9.387s16.213 2.987 22.613 9.387c12.373 12.373 12.373 32.853 0 45.227l-105.387 105.387 105.387 105.387c12.373 12.373 12.373 32.853 0 45.227z" />
<glyph unicode="&#xe92d;" glyph-name="wifi-disconnected-02" d="M641.28 342.613c-12.373 12.373-32.853 12.373-45.227 0l-84.053-84.053-84.053 84.053c-12.373 12.373-32.853 12.373-45.227 0s-12.373-32.853 0-45.227l84.053-84.053-84.053-84.053c-12.373-12.373-12.373-32.853 0-45.227s32.853-12.373 45.227 0l84.053 84.053 84.053-84.053c6.4-6.4 14.507-9.387 22.613-9.387s16.213 2.987 22.613 9.387c12.373 12.373 12.373 32.853 0 45.227l-84.053 84.053 84.053 84.053c12.373 12.373 12.373 32.853 0 45.227zM520.96 565.333c-110.507 1.28-217.6-45.653-309.333-137.387-12.373-12.373-12.373-32.853 0-45.227s32.853-12.373 45.227 0c78.933 78.933 169.813 119.467 262.827 118.613 89.6-1.28 174.507-42.24 245.76-117.76 6.4-6.827 14.933-10.24 23.467-10.24 7.68 0 15.787 2.987 21.76 8.533 12.8 11.947 13.653 32.427 1.28 45.227-82.773 88.747-183.467 136.533-290.987 138.24zM959.147 642.987c-280.32 236.373-614.4 236.373-894.72 0-13.227-11.093-14.933-31.573-3.413-44.8 6.4-7.68 15.36-11.52 24.32-11.52 7.253 0 14.507 2.56 20.48 7.68 258.133 218.027 554.24 218.027 811.947 0 13.653-11.52 33.707-9.813 45.227 3.84 11.52 13.227 9.813 33.707-3.84 44.8z" />
<glyph unicode="&#xe92e;" glyph-name="wifi-disconnected-03" d="M512.427 234.667h-0.427c-23.467 0-42.24-19.2-42.24-42.667s19.2-42.667 43.093-42.667 42.667 19.2 42.667 42.667-19.627 42.667-43.093 42.667zM329.387 342.613c-12.373-12.373-12.373-32.853 0-45.227s32.853-12.373 45.227 0c72.96 72.96 201.387 73.387 274.773 0 6.4-6.4 14.507-9.387 22.613-9.387s16.213 2.987 22.613 9.387c12.373 12.373 12.373 32.853 0 45.227-97.28 97.28-267.947 97.28-365.227 0zM590.933 514.987c17.067-3.84 34.133 7.253 37.973 24.747 3.413 17.493-7.253 34.133-24.747 37.973-133.973 28.16-276.053-10.24-389.547-104.96-13.653-11.52-15.36-31.573-4.267-45.227 6.4-7.68 15.36-11.52 24.747-11.52 7.253 0 14.507 2.56 20.48 7.253 99.84 83.627 218.88 116.053 335.36 91.733zM800 480.853c-13.653 11.093-33.707 9.387-45.227-3.84-11.52-13.653-9.387-33.707 3.84-45.227l9.387-7.68c5.973-5.547 13.653-8.107 21.333-8.107 8.96 0 17.493 3.413 23.893 10.667 11.947 13.227 10.667 33.28-2.56 45.227-3.413 2.987-7.253 5.973-10.667 8.96zM552.107 712.96c17.493-1.28 32.853 11.947 34.133 29.44s-11.947 32.853-29.44 34.133c-169.813 13.227-340.053-47.787-491.947-176.213-13.653-11.093-15.36-31.573-3.84-44.8 6.4-7.68 15.36-11.52 24.32-11.52 7.253 0 14.507 2.56 20.48 7.68 139.093 117.333 293.12 173.653 446.293 161.28zM855.893 618.667l105.387 105.387c12.373 12.373 12.373 32.853 0 45.227s-32.853 12.373-45.227 0l-105.387-105.387-105.387 105.387c-12.373 12.373-32.853 12.373-45.227 0s-12.373-32.853 0-45.227l105.387-105.387-105.387-105.387c-12.373-12.373-12.373-32.853 0-45.227s32.853-12.373 45.227 0l105.387 105.387 105.387-105.387c6.4-6.4 14.507-9.387 22.613-9.387s16.213 2.987 22.613 9.387c12.373 12.373 12.373 32.853 0 45.227l-105.387 105.387z" />
<glyph unicode="&#xe92f;" glyph-name="wifi-disconnected-04" d="M512 96c-25.6 0-57.173 43.093-109.653 114.347l-227.84 310.613c-45.227 62.293-60.587 84.907-56.32 110.507s20.053 36.693 73.387 72.107c96 63.147 206.933 96.427 320.427 96.427s224-33.28 320.427-96.427c53.76-35.413 69.12-46.507 73.813-72.107 4.267-25.6-11.093-48.213-56.32-109.653l-64.427-84.053c-10.667-14.080-8.107-34.133 5.973-44.8s34.133-8.107 44.8 5.973l65.28 84.48c47.787 65.28 76.8 104.96 67.84 158.72-8.96 54.187-46.080 78.080-101.547 114.773-106.667 69.973-229.547 107.093-355.413 107.093s-248.747-37.12-355.413-107.093c-56.32-36.693-93.013-60.587-101.973-114.773-8.96-53.76 20.053-93.013 67.84-158.72l227.84-310.613c66.56-90.88 103.253-140.8 161.28-140.8 17.493 0 32 14.507 32 32s-14.507 32-32 32zM918.613 342.613c-12.373 12.373-32.853 12.373-45.227 0l-105.387-105.387-105.387 105.387c-12.373 12.373-32.853 12.373-45.227 0s-12.373-32.853 0-45.227l105.387-105.387-105.387-105.387c-12.373-12.373-12.373-32.853 0-45.227s32.853-12.373 45.227 0l105.387 105.387 105.387-105.387c6.4-6.4 14.507-9.387 22.613-9.387s16.213 2.987 22.613 9.387c12.373 12.373 12.373 32.853 0 45.227l-105.387 105.387 105.387 105.387c12.373 12.373 12.373 32.853 0 45.227z" />
<glyph unicode="&#xe930;" glyph-name="wifi-error-01" d="M214.187 558.080c-13.653-11.52-15.36-31.573-4.267-45.227 6.4-7.68 15.36-11.52 24.747-11.52 7.253 0 14.507 2.56 20.48 7.253 158.293 131.84 364.373 132.267 512.853 0.427 13.227-11.52 33.707-10.667 45.227 2.56s10.667 33.28-2.56 45.227c-173.227 153.6-413.013 154.027-596.48 1.28zM959.147 685.653c-279.893 236.373-614.4 236.373-894.72 0-13.227-11.093-14.933-31.573-3.413-44.8 11.093-13.653 31.573-15.36 44.8-3.84 258.133 218.027 553.813 218.027 811.947 0 5.973-5.12 13.227-7.68 20.48-7.68 8.96 0 17.92 3.84 24.32 11.52 11.947 13.227 10.24 33.707-3.413 44.8zM511.573 203.52c-17.493 0-32-14.933-32-32.853s14.507-32 32-32 32 14.507 32 32v1.28c0 17.92-14.080 31.573-32 31.573zM635.307 392.107c-44.8 79.36-94.293 87.467-116.48 87.893l-12.8 0.853c-19.627 0-72.107-6.4-118.187-87.467l-91.307-157.013c-11.52-18.773-46.933-84.48-17.493-140.373 19.2-37.12 59.733-57.173 120.747-60.587l113.067-2.987 111.36 2.56c76.8 4.267 108.8 36.693 122.027 63.147 23.040 46.080 4.693 101.973-19.2 137.387l-91.733 156.587zM688.64 126.293c-10.24-20.48-42.667-26.453-66.987-27.733l-108.8-2.56-110.933 2.987c-24.747 1.28-56.747 6.827-66.56 26.453-10.24 19.627 0.427 52.907 15.787 77.653l92.16 157.867c24.747 43.947 49.067 55.467 59.307 55.467 0 0 0.427 0 0.427 0l13.653-0.853c0.853 0 1.707 0 2.987 0 1.28-0.427 28.587 0.427 60.16-55.467l93.013-159.147c14.507-22.187 26.027-54.613 15.787-74.667zM511.573 352.427c-17.493 0-32-14.507-32-32v-64.427c0-17.493 14.507-32 32-32s32 14.507 32 32v64.427c0 17.92-14.080 32-32 32z" />
<glyph unicode="&#xe931;" glyph-name="wifi-error-02" d="M400.213 306.347c-26.453-12.373-50.347-28.587-70.827-49.067-12.373-12.373-12.373-32.853 0-45.227 6.4-6.4 14.507-9.387 22.613-9.387s16.213 2.987 22.613 9.387c14.933 14.933 32.427 27.307 52.053 36.267 16.213 7.253 23.040 26.453 15.787 42.667-7.253 15.787-26.453 22.613-42.24 15.36zM623.787 306.347c-15.787 7.253-34.987 0.427-42.667-15.787-7.253-16.213-0.427-34.987 15.787-42.667 19.627-8.96 37.547-21.333 52.053-36.267 6.4-6.4 14.507-9.387 22.613-9.387s16.213 2.987 22.613 9.387c12.373 12.373 12.373 32.853 0 45.227-20.053 20.907-43.52 37.12-70.4 49.493zM649.813 478.293c-16.64 5.547-34.987-3.84-40.107-20.48-5.547-16.64 3.84-34.987 20.48-40.107 49.92-16.213 96.427-42.667 138.24-78.933 5.973-5.12 13.653-7.68 20.907-7.68 8.96 0 17.92 3.84 24.32 11.093 11.52 13.227 10.24 33.707-2.987 45.227-48.64 41.387-102.4 72.107-160.853 90.88zM414.293 456.107c-5.547 16.64-23.467 26.027-40.533 20.053-57.173-18.773-110.507-49.067-159.573-89.173-13.653-11.093-15.787-31.573-4.267-45.227 6.4-7.68 15.36-11.52 24.747-11.52 7.253 0 14.507 2.56 20.48 7.253 42.667 34.987 89.6 61.44 139.093 77.653 16.64 5.973 25.6 24.32 20.053 40.96zM372.053 649.387c-5.12 17.067-23.040 26.453-40.107 21.333-87.040-26.88-176.64-78.933-267.093-155.307-13.653-11.52-15.36-31.573-3.84-45.227 6.4-7.68 15.36-11.52 24.32-11.52 7.253 0 14.507 2.56 20.48 7.68 83.627 70.827 165.973 119.040 244.907 143.36 17.067 5.12 26.453 23.040 21.333 39.68zM959.147 514.987c-90.453 76.373-180.053 128.427-267.093 155.307-17.067 5.12-34.987-4.267-40.107-21.333s4.267-34.987 21.333-40.107c78.933-24.32 161.28-72.533 244.907-143.36 5.973-5.12 13.227-7.68 20.48-7.68 8.96 0 17.92 3.84 24.32 11.52 11.52 14.080 9.813 34.56-3.84 45.653zM512.427 149.333h-0.427c-23.467 0-42.24-19.2-42.24-42.667s19.2-42.667 43.093-42.667 42.667 19.2 42.667 42.667-19.627 42.667-43.093 42.667zM480.427 229.547c2.56-15.36 15.787-26.88 31.573-26.88s29.013 11.093 31.573 26.88l84.907 503.893c5.12 30.293-8.96 58.88-34.987 71.253-47.787 22.613-114.773 22.613-162.56 0-26.453-12.8-40.533-41.387-35.413-71.68l84.907-503.467zM512 757.333c19.2 0 38.827-3.413 54.187-10.667 0 0-0.853-2.56-0.853-2.56l-53.333-317.013-54.187 319.147c15.36 7.253 34.987 11.093 54.187 11.093z" />
<glyph unicode="&#xe932;" glyph-name="wifi-full-signal" d="M968.96 642.133c-8.96 54.187-46.080 78.080-101.547 114.773-106.667 69.973-229.547 107.093-355.413 107.093s-248.747-37.12-355.413-107.093c-55.893-36.693-92.587-60.587-101.547-114.773-8.96-53.76 20.053-93.013 67.84-158.72l100.693-137.387 6.4-10.24c0.427 0 0.427 0.427 0.853 0.427l119.893-163.413c66.56-90.88 103.253-140.8 161.28-140.8s94.72 49.92 161.28 140.8l119.893 163.413c0.427 0 0.427-0.427 0.853-0.427l6.4 10.667 100.693 137.387c48.213 64.853 76.8 104.533 67.84 158.293zM118.187 631.467c4.267 25.6 20.053 36.693 73.387 72.107 96 63.147 206.933 96.427 320.427 96.427s224-33.28 320.427-96.427c53.76-35.413 69.12-46.507 73.813-72.107 3.413-21.76-6.827-41.387-37.547-84.053-224.427 138.24-488.96 138.24-713.387 0-30.293 42.667-40.96 62.293-37.12 84.053zM830.72 495.36l-56.32-76.8c-166.4 81.493-358.4 81.493-524.8 0l-56.32 76.8c200.96 121.6 436.48 121.6 637.44 0zM512 96c-25.6 0-57.173 43.093-109.653 114.347l-8.96 12.373c77.227 29.867 160.427 29.867 237.653 0l-8.96-12.373c-52.907-71.253-84.48-114.347-110.080-114.347zM669.44 275.627c-101.547 43.947-213.333 44.373-314.88 0l-66.56 90.453c142.507 66.133 305.067 66.133 448 0l-66.56-90.453z" />
<glyph unicode="&#xe933;" glyph-name="wifi-location" d="M512 906.667c-225.707 0-416-189.013-416-413.013 0-238.933 205.227-393.813 360.533-489.813 16.64-9.387 35.84-14.507 55.467-14.507s38.4 5.12 56.32 14.933c241.92 148.053 359.68 308.053 359.68 489.387 0 224-190.293 413.013-416 413.013zM535.893 59.733c-14.507-8.107-34.133-7.68-46.507-0.853-141.227 87.467-329.387 227.84-329.387 434.773 0 189.013 161.28 349.013 352 349.013s352-159.573 352-349.013c0-157.013-107.52-299.093-328.107-433.92zM621.653 475.307c-66.987 41.813-151.893 41.813-219.307 0.427-14.933-9.387-19.627-29.013-10.24-43.947s29.013-19.627 43.947-10.24c47.787 29.44 104.533 29.44 151.893 0 5.12-3.413 11.093-4.693 17.067-4.693 10.667 0 21.333 5.12 27.307 14.933 8.96 14.080 4.267 34.133-10.667 43.52zM321.28 580.267c-13.653-11.093-15.787-31.147-4.693-44.8s31.147-15.787 45.227-4.693c90.027 73.387 210.773 72.96 300.8-0.427 5.973-4.693 13.227-7.253 20.053-7.253 9.387 0 18.347 3.84 24.747 11.947 11.093 13.653 8.96 33.707-4.693 45.227-112.64 92.16-268.373 92.16-381.44 0zM512.427 362.667v0c-23.893 0-42.667-19.2-42.667-42.667s19.2-42.667 42.667-42.667 42.667 19.2 42.667 42.667-19.2 42.667-42.667 42.667z" />
<glyph unicode="&#xe934;" glyph-name="wifi-lock" d="M561.493 389.12c-78.933 17.493-161.707-8.107-221.44-67.84-12.373-12.373-12.373-32.853 0-45.227 6.4-6.4 14.507-9.387 22.613-9.387s16.213 2.987 22.613 9.387c44.8 44.8 104.107 63.147 162.56 50.773 17.067-3.84 34.133 6.827 37.973 24.32 3.84 17.067-6.827 34.133-24.32 37.973zM645.973 504.32c15.787-8.533 34.987-2.56 43.52 12.8 8.533 15.787 2.56 34.987-12.8 43.52-157.867 86.187-318.293 55.040-464.64-90.027-12.373-12.373-12.373-32.853 0-45.227 5.973-6.4 14.507-9.387 22.613-9.387s16.213 2.987 22.613 8.96c125.867 125.013 256.427 151.467 388.693 79.36zM918.187 593.92c13.653-11.52 33.707-9.813 45.227 3.84s9.813 33.707-3.84 45.227c-280.32 236.373-614.4 236.373-894.72 0-13.653-11.093-15.36-31.573-3.84-44.8 5.973-7.68 15.36-11.52 24.32-11.52 7.253 0 14.507 2.56 20.907 7.253 258.133 218.027 553.813 218.027 811.947 0zM962.56 265.813l-59.733-23.040c1.28-2.987 2.133-7.68 2.987-17.493 0.427-9.813 0.853-22.613 0.853-41.813s0-31.573-0.853-41.387c-0.427-9.813-1.707-14.507-2.987-17.493v0c-4.693-11.52-13.227-20.48-23.040-25.173-2.133-0.853-5.973-2.133-14.507-2.56-8.96-0.853-20.48-0.853-38.4-0.853h-74.667v-64h74.667c17.067 0 31.147 0 43.093 0.853 12.373 0.853 23.893 2.987 35.84 8.107 26.453 11.947 46.933 34.133 57.173 61.013h-0.427c4.693 11.52 6.4 23.467 7.253 35.84s0.853 27.733 0.853 45.653v0.427c0 18.347 0 33.28-0.853 45.653-0.853 12.8-2.56 24.747-7.253 36.267zM905.813 327.253c-3.413 1.28-6.4 2.133-9.813 2.987v45.653c0 58.453-49.067 104.107-106.667 104.107s-106.667-45.653-106.667-104.107v-45.653c-3.413-0.853-6.4-1.707-9.813-2.987v0c-26.453-11.947-46.507-34.133-56.747-61.013-4.693-11.52-6.4-23.893-7.253-36.267s-0.853-27.733-0.853-45.653v-0.427c0-18.347 0-33.28 0.853-45.653 0.853-12.8 2.56-24.747 7.253-36.267h-0.427c10.667-26.88 30.72-49.067 57.173-61.013 11.52-5.12 23.467-7.253 35.84-8.107 11.947-0.853 26.453-0.853 46.933-0.853v64c-21.76 0-33.28 0-42.24 0.853-8.533 0.427-12.373 1.707-14.507 2.56-10.24 4.693-18.773 13.653-23.467 25.6h0.427c-1.28 2.987-2.133 7.68-2.987 17.493-0.427 9.813-0.853 22.613-0.853 41.813s0 31.573 0.853 41.387c0.427 9.813 1.707 14.507 2.987 17.493 4.693 11.947 13.227 20.907 23.467 25.6v0c2.133 0.853 5.973 2.133 14.080 2.56 8.96 0.853 20.48 0.853 38.4 0.853h75.093c17.92 0 29.44 0 38.4-0.853 8.533-0.427 12.373-1.707 14.507-2.56 10.24-4.693 18.773-13.653 23.040-26.453l59.733 23.040c-10.24 27.733-30.293 49.92-56.747 61.867zM832 336.213c-0.853 0-2.133 0-2.987 0v0h-77.227c-1.707 0-3.413 0-5.12 0v39.68c0 20.907 17.92 40.107 42.667 40.107s42.667-19.2 42.667-40.107v-39.68z" />
<glyph unicode="&#xe935;" glyph-name="wifi-low-signal" d="M968.96 642.133c-8.96 54.187-46.080 78.080-101.547 114.773-106.667 69.973-229.547 107.093-355.413 107.093s-248.747-37.12-355.413-107.093c-55.893-36.693-92.587-60.587-101.547-114.773-8.96-53.76 20.053-93.013 67.84-158.72l227.84-310.613c66.56-90.88 103.253-140.8 161.28-140.8s94.72 49.92 161.28 140.8l227.84 310.613c48.213 65.28 76.8 104.96 67.84 158.72zM512 96c-25.6 0-57.173 43.093-109.653 114.347l-8.96 12.373c77.227 29.867 160.427 29.867 237.653 0l-8.96-12.373c-52.907-71.253-84.48-114.347-110.080-114.347zM849.493 521.387l-180.053-245.333c-101.547 43.947-213.333 44.373-314.88 0l-180.053 245.333c-45.227 61.867-60.587 84.48-56.32 110.080s20.053 36.693 73.387 72.107c96 63.147 206.933 96.427 320.427 96.427s224-33.28 320.427-96.427c53.76-35.413 69.12-46.507 73.813-72.107 3.84-25.6-11.52-48.213-56.747-110.080z" />
<glyph unicode="&#xe936;" glyph-name="wifi-medium-signal" d="M968.96 642.133c-8.96 54.187-46.080 78.080-101.547 114.773-106.667 69.973-229.547 107.093-355.413 107.093s-248.747-37.12-355.413-107.093c-55.893-36.693-92.587-60.587-101.547-114.773-8.96-53.76 20.053-93.013 67.84-158.72l100.693-137.387 6.4-10.24c0.427 0 0.427 0.427 0.853 0.427l119.893-163.413c66.56-90.88 103.253-140.8 161.28-140.8s94.72 49.92 161.28 140.8l119.893 163.413c0.427 0 0.427-0.427 0.853-0.427l6.4 10.667 100.693 137.387c48.213 64.853 76.8 104.533 67.84 158.293zM512 96c-25.6 0-57.173 43.093-109.653 114.347l-8.96 12.373c77.227 29.867 160.427 29.867 237.653 0l-8.96-12.373c-52.907-71.253-84.48-114.347-110.080-114.347zM669.44 275.627c-101.547 43.947-213.333 44.373-314.88 0l-66.56 90.453c142.507 66.133 305.067 66.133 448 0l-66.56-90.453zM849.493 521.387l-75.093-102.4c-166.4 81.493-358.4 81.493-524.8 0l-75.093 102.4c-45.227 61.867-60.587 84.48-56.32 110.080s20.053 36.693 73.387 72.107c96 63.147 206.933 96.427 320.427 96.427s224-33.28 320.427-96.427c53.76-35.413 69.12-46.507 73.813-72.107 3.84-25.6-11.52-48.213-56.747-110.080z" />
<glyph unicode="&#xe937;" glyph-name="wifi-no-signal" d="M512 53.333c-57.6 0-94.293 47.36-160.853 133.12l-227.413 293.12c-48.64 62.72-78.080 100.267-68.693 152.32s46.080 75.093 101.973 109.653c106.667 66.133 229.12 101.12 354.987 101.12s248.32-34.987 354.987-101.12c55.893-34.56 93.013-57.6 102.4-109.653s-20.053-89.6-68.267-152.32v0l-227.84-293.12c-66.987-85.76-103.68-133.12-161.28-133.12zM512 778.667c-113.92 0-224.853-31.573-320.853-91.307-52.48-32.427-69.12-43.947-72.96-66.56-4.267-23.040 11.093-43.947 55.893-101.547l227.84-293.547c54.187-69.547 84.053-108.373 110.080-108.373s55.893 38.4 110.080 108.373l227.84 293.547c44.8 57.6 60.16 78.933 55.893 101.547-4.267 23.040-20.907 34.133-72.96 66.56-96 59.733-206.933 91.307-320.853 91.307z" />
<glyph unicode="&#xe938;" glyph-name="wifi-off-01" d="M544.427 580.693c-2.56-17.493 9.387-33.707 26.88-36.267 67.413-10.24 135.68-44.373 197.12-98.987 5.973-5.547 13.653-8.107 21.333-8.107 8.96 0 17.493 3.84 23.893 10.667 11.52 13.227 10.667 33.28-2.56 45.227-70.827 62.72-150.187 101.973-229.547 114.347-18.347 2.56-34.56-9.387-37.12-26.88zM411.307 726.187c173.227 33.28 348.587-20.053 506.88-153.6 5.973-5.12 13.227-7.68 20.48-7.68 8.96 0 17.92 3.84 24.32 11.52 11.52 13.653 9.813 33.707-3.84 45.227-173.227 146.347-366.933 204.373-559.787 167.68-17.493-3.413-28.587-20.053-25.6-37.547 3.413-17.493 20.48-28.587 37.547-25.6zM512 288c-52.907 0-96-43.093-96-96s43.093-96 96-96c52.907 0 96 43.093 96 96s-43.093 96-96 96zM512 160c-17.493 0-32 14.507-32 32s14.507 32 32 32 32-14.507 32-32-14.507-32-32-32zM961.28 43.947l-853.333 853.333c-12.373 12.373-32.853 12.373-45.227 0s-12.373-32.853 0-45.227l133.12-133.12c-35.84-21.333-79.787-53.76-131.413-96.853-13.227-11.52-14.933-32-3.413-45.227 6.4-7.68 15.36-11.52 24.32-11.52 7.253 0 14.507 2.56 20.48 7.68 56.32 47.787 102.4 80.64 136.96 98.987l99.413-99.413c-44.8-18.773-87.893-45.227-128-78.507-13.653-11.52-15.36-31.573-4.267-45.227 6.4-7.68 15.36-11.52 24.747-11.52 7.253 0 14.507 2.56 20.48 7.253 42.667 35.84 88.747 61.867 136.533 78.507l88.32-88.32c-52.053-6.827-98.56-30.72-139.52-70.827-12.373-12.373-12.8-32.853-0.427-45.227 6.4-6.4 14.507-9.387 22.613-9.387s16.213 2.987 22.613 9.387c41.813 41.387 89.6 58.88 145.493 54.187 3.84-0.427 7.253 0.427 10.24 1.28l375.040-375.040c6.4-6.4 14.507-9.387 22.613-9.387s16.213 2.987 22.613 9.387c12.373 11.947 12.373 32.427 0 44.8z" />
<glyph unicode="&#xe939;" glyph-name="wifi-off-02" d="M512.427 213.333h-0.427c-23.467 0-42.24-19.2-42.24-42.667s19.2-42.667 43.093-42.667 42.667 19.2 42.667 42.667-19.627 42.667-43.093 42.667zM544.427 538.027c-2.56-17.493 9.387-33.707 26.88-36.267 67.413-10.24 135.253-44.373 197.12-98.987 5.973-5.547 13.653-8.107 21.333-8.107 8.96 0 17.493 3.84 23.893 10.667 11.52 13.227 10.667 33.28-2.56 45.227-70.827 62.72-150.187 101.973-229.547 114.347-18.347 2.56-34.56-9.387-37.12-26.88zM411.307 683.52c173.227 33.28 348.587-20.053 506.88-153.6 5.973-5.12 13.227-7.68 20.48-7.68 8.96 0 17.92 3.84 24.32 11.52 11.52 13.653 9.813 33.707-3.84 45.227-173.227 146.773-366.933 204.373-559.787 167.68-17.493-3.413-28.587-20.053-25.6-37.547s20.48-28.587 37.547-25.6zM961.28 43.947l-661.76 661.76c0 0 0 0 0 0l-191.573 191.573c-12.373 12.373-32.853 12.373-45.227 0s-12.373-32.853 0-45.227l160-160c-61.867-31.147-111.787-66.56-160-114.773-12.373-12.373-12.373-32.853 0-45.227 6.4-6.4 14.507-9.387 22.613-9.387s16.213 2.987 22.613 9.387c58.453 58.027 113.92 90.027 162.133 112.64l95.573-95.573c-57.6-20.48-106.667-52.48-154.027-99.413-12.373-12.373-12.373-32.853 0-45.227 6.4-6.4 14.507-9.387 22.613-9.387s16.213 2.987 22.613 9.387c48.64 48.64 97.707 76.8 160 93.44l102.827-102.827c-66.133 1.28-130.56-23.893-180.053-73.387-12.373-12.373-12.373-32.853 0-45.227 6.4-6.4 14.507-9.387 22.613-9.387s16.213 2.987 22.613 9.387c58.027 58.027 144.213 71.253 218.88 32.853 0.853-0.427 1.707-0.427 2.56-0.853l309.333-309.333c6.4-6.4 14.507-9.387 22.613-9.387s16.213 2.987 22.613 9.387c12.8 11.947 12.8 32.427 0.427 44.8z" />
<glyph unicode="&#xe93a;" glyph-name="wifi-square" d="M880.64 816.64c-68.693 68.693-168.96 68.693-368.64 68.693s-299.947 0-368.64-68.693c-68.693-68.693-68.693-168.96-68.693-368.64s0-299.947 68.693-368.64c68.693-68.693 168.96-68.693 368.64-68.693s299.947 0 368.64 68.693c68.693 68.693 68.693 168.96 68.693 368.64s0 299.947-68.693 368.64zM835.413 124.587c-49.92-49.92-141.227-49.92-323.413-49.92s-273.493 0-323.413 49.92c-49.92 49.92-49.92 141.227-49.92 323.413s0 273.493 49.92 323.413c49.92 49.92 141.227 49.92 323.413 49.92s273.493 0 323.413-49.92c49.92-49.92 49.92-141.227 49.92-323.413s0-273.493-49.92-323.413zM620.373 433.493c-66.987 37.12-149.333 37.12-216.747 0.427-15.36-8.533-21.333-28.16-12.373-43.52 8.533-15.36 28.16-21.333 43.52-12.373 48.64 26.453 106.24 26.453 154.453 0 5.12-2.56 10.24-3.84 15.36-3.84 11.093 0 22.187 5.973 28.16 16.64 8.533 14.507 2.987 33.707-12.373 42.667zM322.56 545.707c-14.507-10.24-17.493-30.293-7.253-44.8s30.293-17.493 44.8-7.253c90.453 65.707 213.333 65.28 303.787-0.427 5.547-4.267 12.373-5.973 18.773-5.973 9.813 0 19.627 4.693 26.027 13.227 10.24 14.507 7.253 34.133-7.253 44.8-112.64 81.92-266.24 81.92-378.88 0.427zM512.427 320v0c-23.893 0-42.667-19.2-42.667-42.667s19.2-42.667 42.667-42.667 42.667 19.2 42.667 42.667-19.2 42.667-42.667 42.667z" />
<glyph unicode="&#xe93b;" glyph-name="wifi-unlock" d="M561.493 389.12c-78.933 17.067-161.707-8.107-221.44-67.84-12.373-12.373-12.373-32.853 0-45.227 6.4-6.4 14.507-9.387 22.613-9.387s16.213 2.987 22.613 9.387c44.8 44.8 104.107 63.147 162.56 50.773 17.067-3.84 34.133 7.253 37.973 24.32 3.84 17.493-7.253 34.56-24.32 37.973zM645.973 504.747c15.36-8.533 34.987-2.56 43.52 12.8s2.987 34.987-12.8 43.52c-157.867 86.187-318.293 55.040-464.64-90.027-12.373-12.373-12.8-32.853 0-45.227 6.4-6.4 14.507-9.387 22.613-9.387s16.213 2.987 22.613 9.387c125.867 124.587 256.427 151.040 388.693 78.933zM918.187 594.347c13.653-11.52 33.707-9.813 45.227 3.84s9.813 33.707-3.84 45.227c-280.32 236.373-614.4 236.373-894.72 0-13.653-11.52-15.36-32-3.84-45.227 6.4-7.68 15.36-11.52 24.32-11.52 7.253 0 14.507 2.56 20.48 7.68 258.133 218.027 554.24 217.6 812.373 0zM957.867 280.747c-9.813 18.347-25.173 33.707-43.947 43.52-23.467 12.373-49.493 12.373-96.853 12.373h-55.893c-8.533 0-16.64 0-23.893 0v28.16c0 28.16 23.467 51.2 52.053 51.2 12.373 0 24.32-4.267 33.707-12.373 13.653-11.52 33.707-9.813 45.227 3.84s9.813 33.707-3.84 45.227c-20.907 17.92-47.787 27.733-75.52 27.733-64 0-116.053-51.627-116.053-115.2v-36.267c-2.987-1.28-5.973-2.56-8.96-4.267-18.773-9.813-33.707-24.747-43.947-43.52-12.8-23.467-12.8-49.493-12.8-96.427s0-72.96 12.8-96.427c9.813-18.347 25.173-33.707 43.947-43.52 23.467-12.373 49.493-12.373 96.853-12.373h55.893c47.36 0 73.387 0 96.853 12.373 18.773 9.813 33.707 24.747 43.947 43.52 12.8 23.467 12.8 49.493 12.8 96.427s0.427 72.533-12.373 96zM901.547 118.187c-3.84-7.253-9.813-13.227-17.493-17.493-9.387-5.12-31.147-5.12-66.987-5.12h-55.893c-35.84 0-57.6 0-66.987 5.12-7.68 3.84-13.653 9.813-17.493 17.493-5.12 9.387-5.12 30.72-5.12 66.133s0 56.747 5.12 66.133c3.84 7.253 10.24 13.227 17.493 17.493 9.387 5.12 31.147 5.12 66.987 5.12h55.893c35.84 0 57.6 0 66.987-5.12 7.253-3.84 13.653-9.813 17.493-17.493 5.12-9.387 5.12-30.72 5.12-66.133s0-56.747-5.12-66.133z" />
<glyph unicode="&#xe93c;" glyph-name="wireless-cloud-access" d="M778.667 631.467c-4.693 140.8-122.453 253.867-266.667 253.867-128.427 0-238.933-92.16-261.973-214.613-113.92-22.187-196.693-119.893-196.693-236.8 0-84.053 43.093-160.853 115.627-205.227 5.12-3.413 11.093-4.693 16.64-4.693 10.667 0 21.333 5.547 27.307 15.36 9.387 14.933 4.693 34.56-10.667 43.947-53.333 32.853-85.333 89.173-85.333 150.613 0 92.16 70.4 168.107 163.413 176.64 0.427 0 0.853 0 1.28 0 44.8 4.267 90.027-8.107 126.293-34.56 14.080-10.667 34.133-7.68 44.8 6.827 10.667 14.080 7.68 34.133-6.827 44.8-37.973 27.733-82.347 43.947-129.28 47.36 23.467 84.48 103.253 146.347 195.413 146.347 111.787 0 202.667-89.173 202.667-198.827 0-5.973-0.427-11.947-0.853-17.92-3.84-39.68-19.2-77.227-45.227-107.947-11.52-13.653-9.813-33.707 3.84-45.227s33.707-9.813 45.227 3.84c27.733 32.853 46.507 71.253 55.040 112.213 75.947-12.373 133.973-76.8 133.973-154.453 0-52.48-26.453-101.12-70.827-130.133-14.933-9.813-18.773-29.44-8.96-44.373s29.44-18.773 44.373-8.96c62.293 40.96 99.84 109.653 99.84 183.467-0.427 110.933-84.053 203.093-192.427 218.453zM621.653 197.973c-67.413 41.813-151.893 42.24-219.307 0.427-14.933-9.387-19.627-29.013-10.24-43.947s29.013-19.627 43.947-10.24c47.787 29.44 104.107 29.44 151.893 0 5.12-3.413 11.093-4.693 17.067-4.693 10.667 0 21.333 5.12 27.307 14.933 8.96 14.080 4.267 34.133-10.667 43.52zM321.28 302.933c-13.653-11.093-15.787-31.147-4.693-45.227 11.093-13.653 31.147-15.787 45.227-4.693 90.027 72.96 210.773 72.96 300.8-0.427 5.973-4.693 13.227-7.253 20.053-7.253 9.387 0 18.347 3.84 24.747 11.947 11.093 13.653 8.96 33.707-4.693 45.227-113.067 92.587-268.373 92.587-381.44 0.427zM512.427 85.333v0c-23.893 0-42.667-19.2-42.667-42.667s19.2-42.667 42.667-42.667 42.667 19.2 42.667 42.667-19.2 42.667-42.667 42.667z" />
<glyph unicode="&#xe93d;" glyph-name="wireless" d="M620.8 359.68c-66.56 38.827-150.613 38.827-217.6 0.427-15.36-8.96-20.48-28.587-11.947-43.52 8.96-15.36 28.16-20.48 43.52-11.947 48.213 27.733 105.387 27.733 153.6 0 5.12-2.987 10.667-4.267 16.213-4.267 11.093 0 21.76 5.547 27.733 15.787 8.96 14.933 3.84 34.56-11.52 43.52zM322.133 457.387c-14.080-10.667-17.067-30.72-6.4-44.8s30.72-17.067 44.8-6.4c90.453 68.267 212.48 68.267 302.507-0.427 5.547-4.267 12.373-6.4 19.2-6.4 9.813 0 19.2 4.267 25.6 12.8 10.667 14.080 8.107 34.133-5.973 44.8-112.64 85.76-267.093 85.76-379.733 0.427zM512.427 256v0c-23.893 0-42.667-19.2-42.667-42.667s19.2-42.667 42.667-42.667 42.667 19.2 42.667 42.667-19.2 42.667-42.667 42.667zM341.76 704c0 23.467-19.2 42.667-42.667 42.667h-0.427c-23.467 0-42.667-19.2-42.667-42.667s19.2-42.667 42.667-42.667 43.093 19.2 43.093 42.667zM469.76 661.333c23.467 0 42.667 19.2 42.667 42.667s-19.2 42.667-42.667 42.667h-0.427c-23.467 0-42.667-19.2-42.667-42.667s19.2-42.667 43.093-42.667zM880.64 816.64c-68.693 68.693-168.96 68.693-368.64 68.693s-299.947 0-368.64-68.693c-68.693-68.693-68.693-168.96-68.693-368.64s0-299.947 68.693-368.64c68.693-68.693 168.96-68.693 368.64-68.693s299.947 0 368.64 68.693c68.693 68.693 68.693 168.96 68.693 368.64s0 299.947-68.693 368.64zM835.413 124.587c-49.92-49.92-141.227-49.92-323.413-49.92s-273.493 0-323.413 49.92c-49.92 49.92-49.92 141.227-49.92 323.413s0 273.493 49.92 323.413c49.92 49.92 141.227 49.92 323.413 49.92s273.493 0 323.413-49.92c49.92-49.92 49.92-141.227 49.92-323.413s0-273.493-49.92-323.413z" />
</font>
</defs>
</svg>
